[TR24][OF] Jasmine Thompson - Wonderland (EP) - 2017 (Pop)

 Статистика раздачи 
Размер: 327.14 МБ   |  Зарегистрирован: 24 май 2017, 06:48   |   .torrent скачан: 0 раз
Сидеров: 0  [ 0 байт/сек ]     Личеров: 0  [ 0 байт/сек ]  
  
Аватара пользователя
Главный редактор
Главный редактор
Я на сайте
 
Раздал: 90.01 ТБ
Скачал: 3.78 ТБ
Ратио: 24.248
Сообщения: 273922
Стаж: 9 лет 1 месяц 15 дней
Откуда: Санкт-Петербург
СообщениеДобавлено: 24 май 2017, 06:48


Jasmine Thompson / Wonderland (EP)
Формат записи/Источник записи: [TR24][OF]
Наличие водяных знаков: Нет
Год издания/переиздания диска: 2017
Жанр: Pop
Издатель (лейбл): Atlantic Records
Продолжительность: 27:15
Наличие сканов в содержимом раздачи: Только обложка альбома
Треклист:
01. Wonderland (intro)
02. Old Friends
03. Someone's Somebody
04. Wanna Know Love
05. Fix Me
06. Drama
07. Words
08. Old Friends (Jonas Blue Remix)
Контейнер: FLAC (*.flac)
Тип рипа: tracks
Разрядность: 24/44,1
Формат: PCM
Количество каналов: 2.0
Код: Выделить всё
foobar2000 1.3.14 / Dynamic Range Meter 1.1.1
log date: 2017-05-24 09:40:25
--------------------------------------------------------------------------------
Analyzed: Jasmine Thompson / Wonderland EP
--------------------------------------------------------------------------------
DR         Peak         RMS     Duration Track
--------------------------------------------------------------------------------
DR5       -0.01 dB    -7.38 dB      3:40 01-Wonderland (intro)
DR8       -0.01 dB    -8.88 dB      3:34 02-Old Friends
DR7       -0.01 dB    -8.09 dB      3:37 03-Someone's Somebody
DR6       -0.01 dB    -7.91 dB      3:06 04-Wanna Know Love
DR7       -0.01 dB    -7.95 dB      3:35 05-Fix Me
DR6       -0.01 dB    -8.02 dB      3:19 06-Drama
DR7       -0.01 dB    -8.06 dB      3:38 07-Words
DR6       -0.01 dB    -7.72 dB      2:55 08-Old Friends
--------------------------------------------------------------------------------
Number of tracks:  8
Official DR value: DR6
Samplerate:        44100 Hz
Channels:          2
Bits per sample:   24
Bitrate:           1690 kbps
Codec:             FLAC
================================================================================
Источник (релизер): https://www.7digital.com/artist/jasmine-thompson/release/wonderland-ep-6440859
https://store.acousticsounds.com/d/125815/Jasmine_Thompson-Wonderland_EP-FLAC_44kHz24bit_Download
Не забывайте говорить Спасибо. Не уходите с раздачи!   
Торрент: Зарегистрирован [24 май 2017, 06:48]
Статус:
Проверен
 
.torrent скачан: 0 раз
Хэш: 41ef31304ecbec24a33d126b296e28533770c0cb
Размер: 327.14 МБ (343 031 317 байт)
   Стать Автором раздачи
   
Цитата
  • Похожие торренты
    Ответы
    Просмотры
    Последнее сообщение

Вернуться в Поп-музыка (Hi-Res stereo)

Кто сейчас на конференции

Сейчас эту тему просматривают: нет зарегистрированных пользователей и гости: 1