[TR24][OF] Jean-Louis Murat - Il Francese - 2018 (Pop | Chanson)

 Статистика раздачи 
Размер: 451.56 МБ   |  Зарегистрирован: 29 сен 2018, 20:04   |   .torrent скачан: 0 раз
Сидеров: 0  [ 0 байт/сек ]     Личеров: 0  [ 0 байт/сек ]  
  
Аватара пользователя
Главный редактор
Главный редактор
Я на сайте
 
Раздал: 90.01 ТБ
Скачал: 3.78 ТБ
Ратио: 24.248
Сообщения: 273922
Стаж: 9 лет 1 месяц 15 дней
Откуда: Санкт-Петербург
СообщениеДобавлено: 29 сен 2018, 20:04



Jean-Louis Murat


Il Francese



• Формат записи | Источник записи: [TR24][OF]
• Наличие водяных знаков: Нет
• Страна исполнителя: France
• Год издания релиза: 2018
• Жанр: Pop | Chanson
• Издатель (лейбл): [PIAS] Le Label
• Продолжительность: 00:40:14
• WEB релиз: qobuz
• Контейнер: FLAC (*.flac)
• Тип рипа: tracks
• Разрядность: 24/44,1
• Формат: WAV (flac.ape.wv)
• Количество каналов: 2.0
• Наличие сканов: booklet

01 - Achtung (00:04:34)
02 - Cine Vox (00:03:28)
03 - Sweet Lorraine (00:03:20)
04 - Marguerite de Valois (00:03:32)
05 - Hold Up (00:03:13)
06 - Kids (00:03:39)
07 - La Treizieme Porte (00:03:07)
08 - Gazoline (00:03:47)
09 - Silvana (00:04:13)
10 - Rendre l'Ame (00:03:27)
11 - Je Me Souviens (00:03:50)


Код: Выделить всё
foobar2000 1.3.7 / Dynamic Range Meter 1.1.1
log date: 2018-09-28 13:44:18
--------------------------------------------------------------------------------
Analyzed: Jean-Louis Murat / Il Francese
--------------------------------------------------------------------------------
DR         Peak         RMS     Duration Track
--------------------------------------------------------------------------------
DR8        0.00 dB    -9.61 dB      4:35 01-Achtung
DR7        0.00 dB    -9.22 dB      3:28 02-Cine Vox
DR9        0.00 dB   -11.88 dB      3:20 03-Sweet Lorraine
DR7        0.00 dB    -8.54 dB      3:33 04-Marguerite de Valois
DR6        0.00 dB    -7.77 dB      3:14 05-Hold Up
DR9        0.00 dB   -11.01 dB      3:39 06-Kids
DR8       -0.21 dB   -10.34 dB      3:08 07-La Treizieme Porte
DR7        0.00 dB    -9.36 dB      3:47 08-Gazoline
DR6        0.00 dB    -9.96 dB      4:13 09-Silvana
DR8        0.00 dB   -10.39 dB      3:27 10-Rendre l'Ame
DR8       -0.27 dB   -10.79 dB      3:50 11-Je Me Souviens
--------------------------------------------------------------------------------
Number of tracks:  11
Official DR value: DR8
Samplerate:        44100 Hz
Channels:          2
Bits per sample:   24
Bitrate:           1458 kbps
Codec:             FLAC
================================================================================


Не забывайте говорить Спасибо. Не уходите с раздачи!   
Торрент: Зарегистрирован [29 сен 2018, 20:04]
Статус:
Проверен
 
.torrent скачан: 0 раз
Хэш: 4b2717460db1be2c488e2363bc86c2714a03645a
Размер: 451.56 МБ (473 495 922 байт)
   Стать Автором раздачи
   
Цитата
  • Похожие торренты
    Ответы
    Просмотры
    Последнее сообщение

Вернуться в Поп-музыка (Hi-Res stereo)

Кто сейчас на конференции

Сейчас эту тему просматривают: нет зарегистрированных пользователей и гости: 1