[TR24][OF] Boulevard des Airs - Je me dis que toi aussi - 2018 (French Pop)

 Статистика раздачи 
Размер: 379.38 МБ   |  Зарегистрирован: 06 сен 2018, 10:20   |   .torrent скачан: 0 раз
Сидеров: 0  [ 0 байт/сек ]     Личеров: 0  [ 0 байт/сек ]  
  
Аватара пользователя
Главный редактор
Главный редактор
 
Раздал: 90.01 ТБ
Скачал: 3.78 ТБ
Ратио: 24.248
Сообщения: 274187
Стаж: 9 лет 1 месяц 18 дней
Откуда: Санкт-Петербург

Boulevard des Airs - Je me dis que toi aussi
Формат записи/Источник записи: [TR24][OF]
Наличие водяных знаков: Нет
Год издания/переиздания диска: 2018
Жанр: French Pop
Издатель (лейбл): Columbia
Продолжительность: 32:28
Наличие сканов в содержимом раздачи: Буклет PDF
Источник: WRZmusic/qobuz.com
Треклист:
01. Je me dis que toi aussi (3:08)
02. Tout le temps (2:56)
03. Comment ça tue (3:09)
04. Si la vie avance (3:10)
05. Tellement banal (2:54)
06. Allez reste (3:09)
07. Ne me déteste pas (2:57)
08. C'est pas ta faute (3:04)
09. Tout s'effondre (2:42)
10. Hasta la vista (2:52)
11. La vie est une fête (2:28) 
 
Контейнер: FLAC (*.flac)
Тип рипа: tracks
Разрядность: 24/44,1
Формат: PCM
Количество каналов: 2.0
Код: Выделить всё
foobar2000 1.3.9 / Dynamic Range Meter 1.1.1
log date: 2018-09-06 13:00:53
--------------------------------------------------------------------------------
Analyzed: Boulevard des Airs / Je me dis que toi aussi
--------------------------------------------------------------------------------
DR         Peak         RMS     Duration Track
--------------------------------------------------------------------------------
DR6       -0.99 dB    -8.32 dB      3:08 01-Je me dis que toi aussi
DR6       -0.99 dB    -9.72 dB      2:56 02-Tout le temps
DR7       -0.86 dB    -9.93 dB      3:09 03-Comment ça tue
DR8       -0.53 dB   -10.82 dB      3:10 04-Si la vie avance
DR7       -0.93 dB   -11.52 dB      2:54 05-Tellement banal
DR7       -1.27 dB    -9.90 dB      3:09 06-Allez reste
DR7       -1.07 dB    -9.88 dB      2:57 07-Ne me déteste pas
DR6       -0.79 dB    -9.58 dB      3:04 08-C'est pas ta faute
DR5       -1.04 dB    -8.88 dB      2:42 09-Tout s'effondre
DR6       -1.07 dB   -11.05 dB      2:52 10-Hasta la vista
DR7       -0.96 dB   -11.24 dB      2:28 11-La vie est une fête
--------------------------------------------------------------------------------
Number of tracks:  11
Official DR value: DR7
Samplerate:        44100 Hz
Channels:          2
Bits per sample:   24
Bitrate:           1577 kbps
Codec:             FLAC
================================================================================
 
Не забывайте говорить Спасибо. Не уходите с раздачи!   
Торрент: Зарегистрирован [06 сен 2018, 10:20]
Статус:
Проверен
 
.torrent скачан: 0 раз
Хэш: 19dbe3b8df19410f20a947b224c621b3ab04f77d
Размер: 379.38 МБ (397 805 173 байт)
   Стать Автором раздачи
   
Цитата
  • Похожие торренты
    Ответы
    Просмотры
    Последнее сообщение

Вернуться в Поп-музыка (Hi-Res stereo)

Кто сейчас на конференции

Сейчас эту тему просматривают: нет зарегистрированных пользователей и гости: 1