[TR24][OF] Benabar - Le Debut de la suite - 2018 (French Pop)

 Статистика раздачи 
Размер: 434.23 МБ   |  Зарегистрирован: 28 июн 2018, 07:39   |   .torrent скачан: 0 раз
Сидеров: 0  [ 0 байт/сек ]     Личеров: 0  [ 0 байт/сек ]  
  
Аватара пользователя
Главный редактор
Главный редактор
 
Раздал: 90.01 ТБ
Скачал: 3.78 ТБ
Ратио: 24.248
Сообщения: 274187
Стаж: 9 лет 1 месяц 18 дней
Откуда: Санкт-Петербург
СообщениеДобавлено: 28 июн 2018, 07:39


Bénabar – Le Début de la suite
Формат записи/Источник записи: [TR24][OF]
Наличие водяных знаков: Нет
Год издания/переиздания диска: 2018
Жанр: French Pop
Издатель (лейбл): Jive Epic
Продолжительность: 37:27
Наличие сканов в содержимом раздачи: Буклет PDF
Источник: WRZmusic
Магазин: qobuz.com
Треклист:
01. Le Début de la suite (3:12)
02. La petite vendeuse (2:38)
03. Marathonien (2:47)
04. Feu de joie (3:22)
05. Le destin (2:42)
06. Le complexe du sédentaire (3:43)
07. Chevaliers sans armure (3:33)
08. Brève et approximative histoire de France (3:02)
09. Chauffard (2:45)
10. On jouait fort (3:53)
11. Le jeune vigile (2:38)
12. Ça ne sert à rien une chanson (3:11) 

Контейнер: FLAC (*.flac)
Тип рипа: tracks
Разрядность: 24/44,1
Формат: PCM
Количество каналов: 2.0
Код: Выделить всё
foobar2000 1.3.9 / Dynamic Range Meter 1.1.1
log date: 2018-06-28 10:19:12
--------------------------------------------------------------------------------
Analyzed: Bénabar / Le Début de la suite
--------------------------------------------------------------------------------
DR         Peak         RMS     Duration Track
--------------------------------------------------------------------------------
DR7       -0.89 dB    -9.19 dB      3:12 01-Le Début de la suite
DR6       -0.95 dB    -8.70 dB      2:38 02-La petite vendeuse
DR6       -1.02 dB    -9.42 dB      2:47 03-Marathonien
DR6       -1.02 dB    -8.15 dB      3:22 04-Feu de joie
DR7       -1.05 dB    -9.68 dB      2:42 05-Le destin
DR6       -1.00 dB    -8.94 dB      3:43 06-Le complexe du sédentaire
DR9       -1.26 dB   -15.66 dB      3:33 07-Chevaliers sans armure
DR6       -1.03 dB    -8.76 dB      3:02 08-Brève et approximative histoire de France
DR6       -1.26 dB    -9.05 dB      2:45 09-Chauffard
DR7       -1.03 dB    -9.28 dB      3:53 10-On jouait fort
DR7       -1.00 dB   -10.23 dB      2:38 11-Le jeune vigile
DR7       -0.98 dB    -9.94 dB      3:11 12-Ça ne sert à rien une chanson
--------------------------------------------------------------------------------
Number of tracks:  12
Official DR value: DR7
Samplerate:        44100 Hz
Channels:          2
Bits per sample:   24
Bitrate:           1569 kbps
Codec:             FLAC
================================================================================
 
Не забывайте говорить Спасибо. Не уходите с раздачи!   
Торрент: Зарегистрирован [28 июн 2018, 07:39]
Статус:
Проверен
 
.torrent скачан: 0 раз
Хэш: 787edd475721a23f3e49a4b13e652796e1a4a4fe
Размер: 434.23 МБ (455 324 803 байт)
   Стать Автором раздачи
   
Цитата

Вернуться в Поп-музыка (Hi-Res stereo)

Кто сейчас на конференции

Сейчас эту тему просматривают: нет зарегистрированных пользователей и гости: 1