[TR24][OF] Juliette Armanet - Petite Amie (Edition Délice) - 2018 (French Pop)

 Статистика раздачи 
Размер: 625.83 МБ   |  Зарегистрирован: 23 июн 2018, 19:44   |   .torrent скачан: 0 раз
Сидеров: 0  [ 0 байт/сек ]     Личеров: 0  [ 0 байт/сек ]  
  
Аватара пользователя
Главный редактор
Главный редактор
 
Раздал: 90.01 ТБ
Скачал: 3.78 ТБ
Ратио: 24.248
Сообщения: 282030
Стаж: 9 лет 2 месяца 25 дней
Откуда: Санкт-Петербург

Juliette Armanet - Petite Amie
Формат записи/Источник записи: [TR24][OF]
Наличие водяных знаков: Нет
Издание: Edition Délice
Год издания/переиздания диска: 2018
Жанр: French Pop
Издатель (лейбл): Barclay
Продолжительность: 56:16
Наличие сканов в содержимом раздачи: Только обложка альбома
Треклист:
01. L'Amour en Solitaire (2:55)
02. L'Indien (3:32)
03. Sous la Pluie (3:16)
04. À la Folie (4:00)
05. Cavalier Seule (2:47)
06. Alexandre (2:34)
07. Manque d'Amour (3:06)
08. À la Guerre comme à l'Amour (3:42)
09. Un Samedi Soir dans l'Histoire (3:24)
10. Star Triste (3:58)
11. La Carte Postale (2:57)
12. L'Accident (2:52)
13. Petite Amie (3:13)
14. La Nuit (3:22)
15. Loulou (3:54)
16. Adieu Tchin Tchin (2:59)
17. À la Folie (Rework) (3:45) 

Контейнер: FLAC (*.flac)
Тип рипа: tracks
Разрядность: 24/44,1
Формат: PCM
Количество каналов: 2.0
Код: Выделить всё
foobar2000 1.3.9 / Dynamic Range Meter 1.1.1
log date: 2018-06-23 22:37:10
--------------------------------------------------------------------------------
Analyzed: Juliette Armanet / Petite Amie (Edition Délice)
--------------------------------------------------------------------------------
DR         Peak         RMS     Duration Track
--------------------------------------------------------------------------------
DR7        0.00 dB    -9.54 dB      2:55 01-L'Amour en Solitaire
DR8        0.00 dB   -10.61 dB      3:32 02-L'Indien
DR9       -0.69 dB   -12.36 dB      3:16 03-Sous la Pluie
DR8        0.00 dB    -9.07 dB      4:00 04-À la Folie
DR7        0.00 dB    -8.03 dB      2:47 05-Cavalier Seule
DR11      -0.66 dB   -14.27 dB      2:34 06-Alexandre
DR8        0.00 dB   -10.83 dB      3:06 07-Manque d'Amour
DR9        0.00 dB   -10.49 dB      3:42 08-À la Guerre comme à l'Amour
DR7        0.00 dB    -8.96 dB      3:24 09-Un Samedi Soir dans l'Histoire
DR8        0.00 dB    -9.96 dB      3:58 10-Star Triste
DR8       -0.05 dB    -9.69 dB      2:57 11-La Carte Postale
DR10      -0.81 dB   -13.80 dB      2:52 12-L'Accident
DR8        0.00 dB   -10.39 dB      3:13 13-Petite Amie
DR8        0.00 dB    -9.91 dB      3:22 14-La Nuit
DR7        0.00 dB    -7.96 dB      3:54 15-Loulou
DR10      -0.40 dB   -13.43 dB      2:59 16-Adieu Tchin Tchin
DR7        0.00 dB    -7.82 dB      3:45 17-À la Folie (Rework)
--------------------------------------------------------------------------------
Number of tracks:  17
Official DR value: DR8
Samplerate:        44100 Hz
Channels:          2
Bits per sample:   24
Bitrate:           1603 kbps
Codec:             FLAC
================================================================================
Источник: e-onkyo.com

Juliette Armanet - Petite Amie (Deluxe Edition) - 2018 (French Pop)
Не забывайте говорить Спасибо. Не уходите с раздачи!   
Торрент: Зарегистрирован [23 июн 2018, 19:44]
Статус:
Проверен
 
.torrent скачан: 0 раз
Хэш: 2f8258fcc8cf23e397118465e330591bfdacd5f8
Размер: 625.83 МБ (656 227 982 байт)
   Стать Автором раздачи
   
Цитата

Вернуться в Поп-музыка (Hi-Res stereo)

Кто сейчас на конференции

Сейчас эту тему просматривают: нет зарегистрированных пользователей и гости: 1