[TR24][OF] Priscilla Renea - Coloured - 2018 (Pop, Ballad, R&B)

 Статистика раздачи 
Размер: 418.45 МБ   |  Зарегистрирован: 22 июн 2018, 12:06   |   .torrent скачан: 0 раз
Сидеров: 0  [ 0 байт/сек ]     Личеров: 0  [ 0 байт/сек ]  
  
Аватара пользователя
Главный редактор
Главный редактор
 
Раздал: 90.01 ТБ
Скачал: 3.78 ТБ
Ратио: 24.248
Сообщения: 273876
Стаж: 9 лет 1 месяц 14 дней
Откуда: Санкт-Петербург
СообщениеДобавлено: 22 июн 2018, 12:06


Priscilla Renea - Coloured
Формат записи/Источник записи: [TR24][OF]
Наличие водяных знаков: Нет
Год издания/переиздания диска: 2018
Жанр: Pop, Ballad, R&B
Издатель (лейбл): White Rose Garden Music
Продолжительность: 36:49
Наличие сканов в содержимом раздачи: Только обложка альбома
Треклист:
01. Family Tree (3:55)
02. Jonjo (2:40)
03. Gentle Hands (3:20)
04. Heavenly (3:32)
05. You Shaped Box (2:48)
06. If I Ever Loved You (4:42)
07. Different Color (3:04)
08. Denim (3:24)
09. Let's Build A House (4:17)
10. Land Of The Free (5:07)
 
Coloured marks Renea's return to focusing on herself as an artist while spending nearly a decade as a songwriter-for-hire. Her credits read like a who's who of superstar artists and include hits for Rihanna, Selena Gomez, Mary J Blige, Madonna, Demi Lovato, Pitbull, Miranda Lambert, Chris Brown, Fifth Harmony, Mariah Carey, Charlie Puth, Nick Jonas, Train, Diple, Curren$y, and Kelly Clarkson, among others. It's a list that demonstrates not only her chameleon-like stylistic range, but also an emotional intelligence that enables her to connect with artists with varying personalities and help them sound authentic. Coloured, which Renea describes as "a big gumbo of everything that's happening in my life," showcases her powerhouse voice and engaging story-telling on such classic urban-soul ballads as "Heavenly," "If I Ever Loved You," and "Let's Build A House", as well as the rule breaking country-inspired tunes like the autobiographical "Family Tree," "Jonjo," and "Gentle Hands."

Контейнер: FLAC (*.flac)
Тип рипа: tracks
Разрядность: 24/44,1
Формат: PCM
Количество каналов: 2.0
Код: Выделить всё
foobar2000 1.3.9 / Dynamic Range Meter 1.1.1
log date: 2018-06-22 14:48:03
--------------------------------------------------------------------------------
Analyzed: Priscilla Renea / Coloured
--------------------------------------------------------------------------------
DR         Peak         RMS     Duration Track
--------------------------------------------------------------------------------
DR6       -0.12 dB    -8.86 dB      3:55 01-Family Tree
DR8       -0.12 dB    -8.93 dB      2:40 02-Jonjo
DR7       -0.12 dB    -8.76 dB      3:20 03-Gentle Hands
DR8       -0.12 dB   -11.88 dB      3:32 04-Heavenly
DR8       -0.12 dB   -10.24 dB      2:48 05-You Shaped Box
DR7       -0.12 dB    -9.72 dB      4:42 06-If I Ever Loved You
DR8       -0.12 dB    -9.76 dB      3:04 07-Different Color
DR7       -0.12 dB    -9.20 dB      3:24 08-Denim
DR7       -0.12 dB    -8.85 dB      4:17 09-Let's Build A House
DR8       -0.23 dB   -11.40 dB      5:07 10-Land Of The Free
--------------------------------------------------------------------------------
Number of tracks:  10
Official DR value: DR7
Samplerate:        44100 Hz
Channels:          2
Bits per sample:   24
Bitrate:           1488 kbps
Codec:             FLAC
================================================================================
Источник: qobuz.com[/spoiler]
Не забывайте говорить Спасибо. Не уходите с раздачи!   
Торрент: Зарегистрирован [22 июн 2018, 12:06]
Статус:
Проверен
 
.torrent скачан: 0 раз
Хэш: 33902471af1e28c503d9710b5a248c8c9d9e909b
Размер: 418.45 МБ (438 773 103 байт)
   Стать Автором раздачи
   
Цитата

Вернуться в Поп-музыка (Hi-Res stereo)

Кто сейчас на конференции

Сейчас эту тему просматривают: нет зарегистрированных пользователей и гости: 1