[TR24][OF] Judy Blank - Morning Sun - 2018 (Pop, Folk, Country)

 Статистика раздачи 
Размер: 412.7 МБ   |  Зарегистрирован: 06 сен 2018, 17:09   |   .torrent скачан: 0 раз
Сидеров: 0  [ 0 байт/сек ]     Личеров: 0  [ 0 байт/сек ]  
  
Аватара пользователя
Главный редактор
Главный редактор
 
Раздал: 90.01 ТБ
Скачал: 3.78 ТБ
Ратио: 24.248
Сообщения: 273485
Стаж: 9 лет 1 месяц 10 дней
Откуда: Санкт-Петербург
СообщениеДобавлено: 06 сен 2018, 17:09


Judy Blank - Morning Sun


Формат записи/Источник записи: [TR24][OF]
Наличие водяных знаков: Нет
Год издания: 2018
Жанр: Pop, Folk, Country
Издатель (лейбл): Munich Records, a division of V2 Records Benelux
Продолжительность: 00:39:12
Наличие сканов в содержимом раздачи: Только обложка альбома
Контейнер: FLAC (*.flac)
Тип рипа: tracks
Разрядность: 24/44,1
Формат: PCM
Количество каналов: 2.0
Источник (релизер): qobuz.com
Треклист:
1. Lay Me Down (03:39)
2. Mary Jane (03:55)
3. Tiger Eye Stone (02:30)
4. Tangled up in You (03:10)
5. Sweet Love (03:25)
6. 1995 (03:17)
7. Unbroken (04:26)
8. I Got a Man (02:10)
9. Who've You Been Loving Lately (05:33)
10. Riverbed (03:23)
11. Play Pretend (03:44)
Код: Выделить всё
foobar2000 1.4 / Dynamic Range Meter 1.1.1
log date: 2018-09-06 20:50:54
--------------------------------------------------------------------------------
Analyzed: Judy Blank / Morning Sun
--------------------------------------------------------------------------------
DR         Peak         RMS     Duration Track
--------------------------------------------------------------------------------
DR8       -0.50 dB   -11.30 dB      3:40 01-Lay Me Down
DR6       -0.50 dB    -8.28 dB      3:56 02-Mary Jane
DR7       -0.50 dB    -9.76 dB      2:30 03-Tiger Eye Stone
DR9       -0.50 dB   -12.64 dB      3:11 04-Tangled Up In You
DR9       -0.50 dB   -12.62 dB      3:26 05-Sweet Love
DR7       -0.50 dB    -9.71 dB      3:18 06-1995
DR8       -0.50 dB   -12.96 dB      4:27 07-Unbroken
DR6       -0.50 dB    -8.65 dB      2:10 08-I Got A Man
DR7       -0.50 dB   -10.78 dB      5:34 09-Who've You Been Loving Lately
DR7       -0.50 dB   -10.50 dB      3:24 10-Riverbed
DR7       -0.50 dB    -9.43 dB      3:45 11-Play Pretend
--------------------------------------------------------------------------------
Number of tracks:  11
Official DR value: DR8
Samplerate:        44100 Hz
Channels:          2
Bits per sample:   24
Bitrate:           1516 kbps
Codec:             FLAC
================================================================================
Judy Blank recorded her second album at Zac Brown's Southern Ground studios in Nashville, Tennessee. Get ready for brand new Americana, rootsy guitar work, well-crafted lyrics and a heartfelt voice that will take you on a whirling road-trip through the Deep South.
'Mary Jane' is the first single from the long-awaited new album 'Morning Sun'. The song is about musicians who are firmly convinced that they are going to make it, while in reality they prefer to do as little as possible, are on the couch and in the meantime, empty the bank account of mom and dad.
Не забывайте говорить Спасибо. Не уходите с раздачи!   
Торрент: Зарегистрирован [06 сен 2018, 17:09]
Статус:
Проверен
 
.torrent скачан: 0 раз
Хэш: e285827f1af9fe954c7e7152cc8742cf82236a46
Размер: 412.7 МБ (432 744 430 байт)
   Стать Автором раздачи
   
Цитата
  • Похожие торренты
    Ответы
    Просмотры
    Последнее сообщение

Вернуться в Поп-музыка (Hi-Res stereo)

Кто сейчас на конференции

Сейчас эту тему просматривают: нет зарегистрированных пользователей и гости: 1