[TR24][OF] New Order - Music Complete - 2015 (Synthpop, New Wave, Post-Punk)

 Статистика раздачи 
Размер: 1.42 ГБ   |  Зарегистрирован: 25 сен 2015, 20:24   |   .torrent скачан: 0 раз
Сидеров: 0  [ 0 байт/сек ]     Личеров: 0  [ 0 байт/сек ]  
  
Аватара пользователя
Главный редактор
Главный редактор
 
Раздал: 90.01 ТБ
Скачал: 3.78 ТБ
Ратио: 24.248
Сообщения: 274856
Стаж: 9 лет 1 месяц 20 дней
Откуда: Санкт-Петербург

New Order / Music Complete
Формат записи/Источник записи: [TR24][OF]
Наличие водяных знаков: Нет
Год издания/переиздания диска: 2015
Жанр: Synthpop, New Wave, Post-Punk
Издатель(лейбл): Mute
Продолжительность: 01:04:31.333
Наличие сканов в содержимом раздачи: Нет

01. Restless (5:28)
02. Singularity (5:37)
03. Plastic (6:55)
04. Tutti Frutti (6:23)
05. People On The High Line (5:42)
06. Stray Dog (6:18)
07. Academic (5:55)
08. Nothing But A Fool (7:43)
09. Unlearn This Hatred (4:19)
10. The Game (5:07)
11. Superheated (5:05)
Контейнер: FLAC (*.flac)
Тип рипа: tracks
Разрядность: 24/96
Формат: WAV (flac.ape.wv)
Количество каналов: 2.0
Код: Выделить всё
foobar2000 1.3.8 / Dynamic Range Meter 1.1.1
log date: 2015-09-25 23:14:57
--------------------------------------------------------------------------------
Analyzed: New Order / Music Complete
--------------------------------------------------------------------------------
DR         Peak         RMS     Duration Track
--------------------------------------------------------------------------------
DR6       -0.10 dB    -7.68 dB      5:28 01-Restless
DR6       -0.50 dB    -8.30 dB      5:37 02-Singularity
DR7       -0.30 dB    -9.41 dB      6:55 03-Plastic
DR6       -0.30 dB    -8.16 dB      6:23 04-Tutti Frutti
DR8       -0.30 dB    -9.15 dB      5:42 05-People On The High Line
DR7       -0.60 dB    -8.19 dB      6:18 06-Stray Dog
DR6       -0.30 dB    -7.11 dB      5:55 07-Academic
DR6       -0.30 dB    -8.06 dB      7:43 08-Nothing But A Fool
DR6       -0.50 dB    -8.52 dB      4:19 09-Unlearn This Hatred
DR6       -0.30 dB    -7.95 dB      5:07 10-The Game
DR6       -0.30 dB    -8.51 dB      5:05 11-Superheated
--------------------------------------------------------------------------------
Number of tracks:  11
Official DR value: DR6
Samplerate:        96000 Hz
Channels:          2
Bits per sample:   24
Bitrate:           3016 kbps
Codec:             FLAC
================================================================================
Источник (релизер): HDTracks | WRZMusic (error404)
Не забывайте говорить Спасибо. Не уходите с раздачи!   
Торрент: Зарегистрирован [25 сен 2015, 20:24]
Статус:
Проверен
 
.torrent скачан: 0 раз
Хэш: 5829b1347ef1352f4e417ded6183081f30d1366a
Размер: 1.42 ГБ (1 522 467 574 байт)
   Стать Автором раздачи
   
Цитата
  • Похожие торренты
    Ответы
    Просмотры
    Последнее сообщение

Вернуться в Поп-музыка (Hi-Res stereo)

Кто сейчас на конференции

Сейчас эту тему просматривают: нет зарегистрированных пользователей и гости: 1