[TR24][OF] Kimberose - Chapter One - 2018 (Pop, Vocal)

 Статистика раздачи 
Размер: 793.23 МБ   |  Зарегистрирован: 16 мар 2018, 11:27   |   .torrent скачан: 0 раз
Сидеров: 0  [ 0 байт/сек ]     Личеров: 0  [ 0 байт/сек ]  
  
Аватара пользователя
Главный редактор
Главный редактор
 
Раздал: 90.01 ТБ
Скачал: 3.78 ТБ
Ратио: 24.248
Сообщения: 274898
Стаж: 9 лет 1 месяц 21 день
Откуда: Санкт-Петербург
СообщениеДобавлено: 16 мар 2018, 11:27


Kimberose - Chapter One
Формат записи/Источник записи: [TR24][OF]
Наличие водяных знаков: Нет
Год издания/переиздания диска: 2018
Жанр: Pop, Vocal
Издатель (лейбл): Label 6&7
Продолжительность: 41:22
Наличие сканов в содержимом раздачи: Буклет PDF
Треклист:
01. Needed You (3:40)
02. I'm Sorry (3:43)
03. I'm Broke (3:12)
04. Reason (3:28)
05. Waiting For You (4:09)
06. Where Did You Sleep Last Night? (4:12)
07. Wolf (4:36)
08. About Us (3:37)
09. I'm A Fool (4:02)
10. Strong Woman (3:18)
11. Mine (3:25)
 
Her name is Kimberly Kitson Mills and her group is called Kimberose. She discovers about a year ago the albums of Billie Holiday, Etta James, Nina Simone and Sam Cooke. She then decides with guitarist Anthony, and Alexandre on keyboards, to train Kimberose and make the music she wants to listen to. After some magical concerts and debut EP "It's Probably Me" (in October 2017), her full-lenght album "Chapter One" have been released on March 16th. Her voice instantly summons the modern divas of jazz and soul, from Amy Winehouse to Adele. But she's does not hesitate to venture into more pop territories.
«Chapter One» le premier album de Kimberose. 11 titres puisant dans les racines de la soul en y apportant la modernité d’un des groupes les plus intéressants de sa génération. Kimberly Kitson Mills est une chanteuse sidérante, une tornade de feeling, revisitant cette musique désormais ancienne qu’est la soul pour lui redonner vigueur et nerf. Sa voix convoque instantanément la mémoire des divas douloureuses du jazz et de la soul, de Billie Holiday à Amy Winehouse en passant par Nina Simone. Solaire et fragile à la fois, Kim, petite française issue de l’immigration (d’un père anglais et d’une mère immigrée du Ghana à Paris), à 26 ans, est prête et armée pour partager cette évidence : la musique de l’âme a encore tant à dire, et tellement d’extases à offrir. Kimberose enregistre un EP de 4 titres en 2017, qui lui vaut un passage remarqué dans «Taratata», puis «C à vous». Son EP se classe alors immédiatement dans les meilleures ventes Françaises, grâce au titre «I’m Sorry». Les salles vont grossir, qui accueilleront Kimberose en ce début 2018, pour une tournée qui s’annonce enchanteresse. Car si le EP et les prestations live de Kimberose restaient dans une facture très classique, ce premier opus osera emprunter à des territoires plus modernes, pop, mais à l’opposé des formatages.

Контейнер: FLAC (*.flac)
Тип рипа: tracks
Разрядность: 24/88,2
Формат: PCM
Количество каналов: 2.0
Код: Выделить всё
foobar2000 1.3.9 / Dynamic Range Meter 1.1.1
log date: 2018-03-16 14:12:38
--------------------------------------------------------------------------------
Analyzed: Kimberose / Chapter One
--------------------------------------------------------------------------------
DR         Peak         RMS     Duration Track
--------------------------------------------------------------------------------
DR7       -0.33 dB    -8.95 dB      3:40 01-Needed You
DR7       -0.33 dB    -9.93 dB      3:43 02-I'm Sorry
DR5       -0.33 dB    -7.13 dB      3:12 03-I'm Broke
DR7       -0.33 dB   -10.02 dB      3:28 04-Reason
DR8       -0.33 dB   -12.42 dB      4:09 05-Waiting For You
DR11      -0.33 dB   -15.62 dB      4:12 06-Where Did You Sleep Last Night?
DR6       -0.33 dB    -9.73 dB      4:36 07-Wolf
DR7       -0.33 dB    -9.60 dB      3:37 08-About Us
DR5       -0.33 dB    -8.12 dB      4:02 09-I'm A Fool
DR8       -0.33 dB   -11.07 dB      3:18 10-Strong Woman
DR8       -0.33 dB   -10.98 dB      3:25 11-Mine
--------------------------------------------------------------------------------
Number of tracks:  11
Official DR value: DR7
Samplerate:        88200 Hz
Channels:          2
Bits per sample:   24
Bitrate:           2744 kbps
Codec:             FLAC
================================================================================
Источник: i-classical[/spoiler]
Не забывайте говорить Спасибо. Не уходите с раздачи!   
Торрент: Зарегистрирован [16 мар 2018, 11:27]
Статус:
Проверен
 
.torrent скачан: 0 раз
Хэш: 8c8f21e03e4ee42252899e2aa6f809f27eee0b4e
Размер: 793.23 МБ (831 757 024 байт)
   Стать Автором раздачи
   
Цитата

Вернуться в Поп-музыка (Hi-Res stereo)

Кто сейчас на конференции

Сейчас эту тему просматривают: нет зарегистрированных пользователей и гости: 1