[TR24][OF] Adrian Underhill - CU Again - 2018 (Pop, R&B)

 Статистика раздачи 
Размер: 771.83 МБ   |  Зарегистрирован: 31 мар 2018, 15:11   |   .torrent скачан: 0 раз
Сидеров: 0  [ 0 байт/сек ]     Личеров: 0  [ 0 байт/сек ]  
  
Аватара пользователя
Главный редактор
Главный редактор
 
Раздал: 90.01 ТБ
Скачал: 3.78 ТБ
Ратио: 24.248
Сообщения: 274898
Стаж: 9 лет 1 месяц 21 день
Откуда: Санкт-Петербург
СообщениеДобавлено: 31 мар 2018, 15:11


Adrian Underhill - CU Again
Формат записи/Источник записи: [TR24][OF]
Наличие водяных знаков: Нет
Год издания/переиздания диска: 2018
Жанр: Pop, R&B
Издатель (лейбл): Indica Records
Продолжительность: 40:56
Наличие сканов в содержимом раздачи: Только обложка альбома
Треклист:
01. Not Good Enough (3:23)
02. CU Again (4:12)
03. I Want It All (3:36)
04. Cruel (5:03)
05. Holding Out (4:23)
06. Weather (4:03)
07. As I Think Of Something Different (2:33)
08. How To Make A Life Count (4:46)
09. I Could (5:23)
10. Carry On (3:34)
 
Toronto's Adrian Underhill‘s new album "CU Again" blends together pop and R&B sounds to create some chill, smooth, baby-making jams. Working with famed producer Kindness, who has worked with both Solange and pop Goddess Robyn, added a subtle electronic element to the record which gives some tracks a little funk undertone, even disco-esque at times.
Adrian Underhill’s debut album promises to be filled with understated, heartfelt songs bathed in sweet, soulful sounds inspired by classic R&B songwriters while also taking the music deep into the new century. Listeners can get a taste of Underhill’s approach via the single “C U Again". Working with producer Kindness (Solange, Robyn, Blood Orange), the Canadian musician strikes a balance between lush sounds and the spare, quiet musings of lo-fi. The confluence of those concerns adds to album’s mesmerizing emotional simplicity. The assuredness of the Underhill’s vocal performance and the unobtrusive production allow the listener to appreciate the directness of the lyrics and, maybe, contribute to the sense that the singer could also be penning a simple missive to his fans.

Контейнер: FLAC (*.flac)
Тип рипа: tracks
Разрядность: 24/88,2
Формат: PCM
Количество каналов: 2.0
Код: Выделить всё
foobar2000 1.3.9 / Dynamic Range Meter 1.1.1
log date: 2018-03-31 17:43:13
--------------------------------------------------------------------------------
Analyzed: Adrian Underhill / CU Again
--------------------------------------------------------------------------------
DR         Peak         RMS     Duration Track
--------------------------------------------------------------------------------
DR7       -0.83 dB    -9.14 dB      3:23 01-Not Good Enough
DR8       -0.89 dB   -11.06 dB      4:12 02-CU Again
DR7       -0.89 dB    -9.41 dB      3:36 03-I Want It All
DR7       -0.80 dB    -9.43 dB      5:03 04-Cruel
DR8       -0.85 dB   -10.31 dB      4:23 05-Holding Out
DR9       -0.89 dB   -10.80 dB      4:03 06-Weather
DR9       -0.78 dB   -10.91 dB      2:33 07-As   I   Think   Of   Something   Different
DR8       -0.86 dB   -10.68 dB      4:46 08-How To Make A Life Count
DR8       -0.88 dB   -10.43 dB      5:23 09-I Could
DR9       -0.90 dB   -11.49 dB      3:34 10-Carry On
--------------------------------------------------------------------------------
Number of tracks:  10
Official DR value: DR8
Samplerate:        88200 Hz
Channels:          2
Bits per sample:   24
Bitrate:           2463 kbps
Codec:             FLAC
================================================================================
Источник: qobuz.com[/spoiler]
Не забывайте говорить Спасибо. Не уходите с раздачи!   
Торрент: Зарегистрирован [31 мар 2018, 15:11]
Статус:
Проверен
 
.torrent скачан: 0 раз
Хэш: b73be81b93cf84d627639df1a454db36229f54cf
Размер: 771.83 МБ (809 319 482 байт)
   Стать Автором раздачи
   
Цитата

Вернуться в Поп-музыка (Hi-Res stereo)

Кто сейчас на конференции

Сейчас эту тему просматривают: нет зарегистрированных пользователей и гости: 1