[TR24][OF] Ed Ames - Ed Ames Sings Apologize - 1968/2018 (Pop, Oldies)

 Статистика раздачи 
Размер: 1.09 ГБ   |  Зарегистрирован: 09 апр 2018, 20:42   |   .torrent скачан: 0 раз
Сидеров: 0  [ 0 байт/сек ]     Личеров: 0  [ 0 байт/сек ]  
  
Аватара пользователя
Главный редактор
Главный редактор
 
Раздал: 90.01 ТБ
Скачал: 3.78 ТБ
Ратио: 24.248
Сообщения: 273621
Стаж: 9 лет 1 месяц 12 дней
Откуда: Санкт-Петербург

Ed Ames - Ed Ames Sings Apologize
Формат записи/Источник записи: [TR24][OF]
Наличие водяных знаков: Нет
Год издания/переиздания диска: 1968/2018
Жанр: Pop, Oldies
Издатель (лейбл): RCA/Legacy
Продолжительность: 29:57
Наличие сканов в содержимом раздачи: Только обложка альбома
Треклист:
01. Travelin' Band (2:20)
02. After All The Loves Of My Life (2:34)
03. The Color Of Snow (2:31)
04. Apologize (2:08)
05. Scarborough Fair Canticle (3:31)
06. Born Free (2:12)
07. Sunny (3:13)
08. Love Is Blue (2:49)
09. Elvira (2:30)
10. Honey (3:52)
11. Thirty Days Hath September (2:17)
 
The youngest of four brothers, he began to sing with Joe, Gene, and Vic in the late '40s. The Ames Brothers hit the Top Ten three times between 1954 and 1957, and starred in their own series in 1955. After the group broke up in 1959, Ames traveled to New York to study acting; he appeared in a few stage productions and then accepted a role in the series Daniel Boone playing Mingo the Indian. He began recording again in 1964, eventually notching seven hits in the charts, including 1967's Top Ten single "My Cup Runneth Over." Twelve albums were eventually released from the mid-'60s to early '70s. If you are an Ed Ames fan, you will enjoy this one. Was in great condition and plays very beautifully. Original recordings this album 1968 year.

Контейнер: FLAC (*.flac)
Тип рипа: tracks
Разрядность: 24/192
Формат: PCM
Количество каналов: 2.0
Код: Выделить всё
foobar2000 1.3.9 / Dynamic Range Meter 1.1.1
log date: 2018-04-09 23:31:12
--------------------------------------------------------------------------------
Analyzed: Ed Ames / Ed Ames Sings Apologize
--------------------------------------------------------------------------------
DR         Peak         RMS     Duration Track
--------------------------------------------------------------------------------
DR11      -0.42 dB   -13.78 dB      2:20 01-Travelin' Band
DR11      -0.42 dB   -15.19 dB      2:34 02-After All The Loves Of My Life
DR13      -2.82 dB   -19.15 dB      2:31 03-The Color Of Snow
DR12      -0.42 dB   -14.92 dB      2:08 04-Apologize
DR13      -0.42 dB   -16.02 dB      3:31 05-Scarborough Fair Canticle
DR11      -1.21 dB   -15.31 dB      2:12 06-Born Free
DR12      -0.42 dB   -16.11 dB      3:13 07-Sunny
DR13      -0.42 dB   -16.98 dB      2:49 08-Love Is Blue
DR11      -0.42 dB   -14.31 dB      2:30 09-Elvira
DR12      -1.13 dB   -16.55 dB      3:52 10-Honey
DR12      -0.42 dB   -14.80 dB      2:17 11-Thirty Days Hath September
--------------------------------------------------------------------------------
Number of tracks:  11
Official DR value: DR12
Samplerate:        192000 Hz
Channels:          2
Bits per sample:   24
Bitrate:           5321 kbps
Codec:             FLAC
================================================================================
Источник: acousticsounds.com[/spoiler]
Не забывайте говорить Спасибо. Не уходите с раздачи!   
Торрент: Зарегистрирован [09 апр 2018, 20:42]
Статус:
Проверен
 
.torrent скачан: 0 раз
Хэш: 4d1f3f2fc884666a7e6d4bb3c918b1a2ff510215
Размер: 1.09 ГБ (1 166 696 294 байт)
   Стать Автором раздачи
   
Цитата

Вернуться в Поп-музыка (Hi-Res stereo)

Кто сейчас на конференции

Сейчас эту тему просматривают: нет зарегистрированных пользователей и гости: 1