[TR24][OF] Rufus Lumley - Rufus Lumley - 1967/2017 (Pop, Vocal, Oldies)

 Статистика раздачи 
Размер: 776.34 МБ   |  Зарегистрирован: 31 дек 2017, 01:50   |   .torrent скачан: 0 раз
Сидеров: 0  [ 0 байт/сек ]     Личеров: 0  [ 0 байт/сек ]  
  
Аватара пользователя
Главный редактор
Главный редактор
 
Раздал: 90.01 ТБ
Скачал: 3.78 ТБ
Ратио: 24.248
Сообщения: 274187
Стаж: 9 лет 1 месяц 18 дней
Откуда: Санкт-Петербург

Rufus Lumley - Rufus Lumley
Формат записи/Источник записи: [TR24][OF]
Наличие водяных знаков: Нет
Год издания/переиздания диска: 1967/2017
Жанр: Pop, Vocal, Oldies
Издатель (лейбл): RCA/Legacy
Продолжительность: 32:18
Наличие сканов в содержимом раздачи: Только обложка альбома
Треклист:
01. They Don't Give Medals (To Yesterday's Heroes) (2:12)
02. Lullaby Of Birdland (3:06)
03. Eleanor Rigby (2:43)
04. (All Of A Sudden) My Heart Sings (3:12)
05. What Kind Of Fool Am I? (3:30)
06. Stronger Than Me (2:47)
07. Michelle (2:56)
08. Medley: Alfie / What The World Needs Now Is Love (4:08)
09. While The Children Play (2:30)
10. Let's Hide Away (2:21)
11. Just Say Goodbye (Regardez Les) (2:53) 

Контейнер: FLAC (*.flac)
Тип рипа: tracks
Разрядность: 24/96
Формат: PCM
Количество каналов: 2.0
Код: Выделить всё
foobar2000 1.3.9 / Dynamic Range Meter 1.1.1
log date: 2017-12-31 04:27:24
--------------------------------------------------------------------------------
Analyzed: Rufus Lumley / Rufus Lumley
--------------------------------------------------------------------------------
DR         Peak         RMS     Duration Track
--------------------------------------------------------------------------------
DR9        0.00 dB   -12.11 dB      2:12 01-They Don't Give Medals (To Yesterday's Heroes)
DR8       -0.01 dB   -10.67 dB      3:06 02-Lullaby Of Birdland
DR9       -0.02 dB   -10.88 dB      2:43 03-Eleanor Rigby
DR9       -0.02 dB   -11.43 dB      3:12 04-(All Of A Sudden) My Heart Sings
DR9       -0.02 dB   -13.74 dB      3:30 05-What Kind Of Fool Am I?
DR8       -0.01 dB   -10.83 dB      2:47 06-Stronger Than Me
DR9       -0.01 dB   -12.24 dB      2:56 07-Michelle
DR9       -0.02 dB   -12.69 dB      4:08 08-Medley: Alfie / What The World Needs Now Is Love
DR10      -0.02 dB   -12.36 dB      2:30 09-While The Children Play
DR10      -0.02 dB   -11.34 dB      2:21 10-Let's Hide Away
DR8        0.00 dB   -10.14 dB      2:53 11-Just Say Goodbye (Regardez Les)
--------------------------------------------------------------------------------
Number of tracks:  11
Official DR value: DR9
Samplerate:        96000 Hz
Channels:          2
Bits per sample:   24
Bitrate:           3379 kbps
Codec:             FLAC
================================================================================
Источник: qobuz.com[/spoiler]
Не забывайте говорить Спасибо. Не уходите с раздачи!   
Торрент: Зарегистрирован [31 дек 2017, 01:50]
Статус:
Проверен
 
.torrent скачан: 0 раз
Хэш: e04813b5cad425f3fe8ac64da043713f3bcaaa89
Размер: 776.34 МБ (814 052 263 байт)
   Стать Автором раздачи
   
Цитата
  • Похожие торренты
    Ответы
    Просмотры
    Последнее сообщение

Вернуться в Поп-музыка (Hi-Res stereo)

Кто сейчас на конференции

Сейчас эту тему просматривают: нет зарегистрированных пользователей и гости: 1