[TR24][OF] Julio Iglesias - Libra - 1985/2015 (Pop, Latin)

 Статистика раздачи 
Размер: 424.12 МБ   |  Зарегистрирован: 17 авг 2018, 19:34   |   .torrent скачан: 0 раз
Сидеров: 0  [ 0 байт/сек ]     Личеров: 0  [ 0 байт/сек ]  
  
Аватара пользователя
Главный редактор
Главный редактор
 
Раздал: 90.01 ТБ
Скачал: 3.78 ТБ
Ратио: 24.248
Сообщения: 274856
Стаж: 9 лет 1 месяц 20 дней
Откуда: Санкт-Петербург
СообщениеДобавлено: 17 авг 2018, 19:34


Julio Iglesias - Libra
Формат записи/Источник записи: [TR24][OF]
Наличие водяных знаков: Нет
Год издания/переиздания диска: 1985/2015
Жанр: Pop, Latin
Издатель (лейбл): Columbia
Продолжительность: 37:27
Наличие сканов в содержимом раздачи: Только обложка альбома
Источник: WRZmusic
Магазин: qobuz.com
Треклист:
01. Ni Te Tengo, Ni Te Olvido (4:02)
02. Tu Y Yo (3:44)
03. I've Got You Under My Skin (4:03)
04. Dire (3:46)
05. Abril en Portugal (Coimbra) (3:10)
06. Felicidades (3:44)
07. Esta Cobardia (3:11)
08. Coracao Apaixonado (5:02)
09. Ni Tu Gato Gris, Ni Tu Perro Fiel (3:09)
10. Todo y Nada (3:37) 

Контейнер: FLAC (*.flac)
Тип рипа: tracks
Разрядность: 24/44,1
Формат: PCM
Количество каналов: 2.0
Код: Выделить всё
foobar2000 1.3.9 / Dynamic Range Meter 1.1.1
log date: 2018-08-17 22:21:26
--------------------------------------------------------------------------------
Analyzed: Julio Iglesias / Libra
--------------------------------------------------------------------------------
DR         Peak         RMS     Duration Track
--------------------------------------------------------------------------------
DR12      -1.14 dB   -15.31 dB      4:02 01-Ni Te Tengo, Ni Te Olvido
DR12      -1.74 dB   -16.71 dB      3:44 02-Tu Y Yo
DR13      -1.06 dB   -15.24 dB      4:03 03-I've Got You Under My Skin
DR13      -1.63 dB   -18.11 dB      3:46 04-Dire
DR14      -0.68 dB   -16.75 dB      3:10 05-Abril en Portugal (Coimbra)
DR12      -1.62 dB   -15.58 dB      3:44 06-Felicidades
DR12      -2.39 dB   -17.01 dB      3:11 07-Esta Cobardia
DR12      -1.02 dB   -15.16 dB      5:02 08-Coracao Apaixonado
DR13      -2.56 dB   -18.65 dB      3:09 09-Ni Tu Gato Gris, Ni Tu Perro Fiel
DR12      -4.57 dB   -18.89 dB      3:37 10-Todo y Nada
--------------------------------------------------------------------------------
Number of tracks:  10
Official DR value: DR13
Samplerate:        44100 Hz
Channels:          2
Bits per sample:   24
Bitrate:           1538 kbps
Codec:             FLAC
================================================================================
 
Не забывайте говорить Спасибо. Не уходите с раздачи!   
Торрент: Зарегистрирован [17 авг 2018, 19:34]
Статус:
Проверен
 
.torrent скачан: 0 раз
Хэш: 8a02e21087bf7f7c3712eaa8aac7003e308480ee
Размер: 424.12 МБ (444 716 942 байт)
   Стать Автором раздачи
   
Цитата
  • Похожие торренты
    Ответы
    Просмотры
    Последнее сообщение

Вернуться в Поп-музыка (Hi-Res stereo)

Кто сейчас на конференции

Сейчас эту тему просматривают: нет зарегистрированных пользователей и гости: 1