[TR24][OF] Vanessa Paradis - Love Songs Tour - 2014 (French Pop, Chanson Française)

 Статистика раздачи 
Размер: 1.6 ГБ   |  Зарегистрирован: 16 июл 2015, 07:30   |   .torrent скачан: 0 раз
Сидеров: 0  [ 0 байт/сек ]     Личеров: 0  [ 0 байт/сек ]  
  
Аватара пользователя
Главный редактор
Главный редактор
 
Раздал: 90.01 ТБ
Скачал: 3.78 ТБ
Ратио: 24.248
Сообщения: 273485
Стаж: 9 лет 1 месяц 10 дней
Откуда: Санкт-Петербург

Vanessa Paradis
Love Songs Tour

Год издания: 2014
Жанр: French Pop, Chanson Française
Издатель: Universal Music GmbH
Продолжительность: 02:20:19
Наличие сканов: Sleeve, Digital Booklet

Контейнер: FLAC (*.flac) | Тип рипа: tracks
Разрядность: 24bit / 44.1kHz | Количество каналов: 2.0
CD 1

01. Pas besoin de permis (3:55)
02. Intro (Vanessa Paradis / Love Songs Tour) (1:59)
03. Il y a (2:54)
04. La Seine (3:08)
05. Natural High (3:25)
06. Station Quatre-Septembre (3:35)
07. Pourtant (3:26)
08. Tandem (3:59)
09. Sunday Mondays (3:45)
10. Joe le taxi (3:51)
11. L’incendie (2:56)
12. Dis-lui toi que je t'aime (3:51)
13. Commando (3:50)
14. Le rempart (4:31)
15. Pas besoin de permis (3:45)
16. Marilyn & John (4:19)
17. Divine idylle (2:44)
18. Tu vois c’que j’vois (4:31)
19. Love Song (5:46)
CD 2
01. L'ouverture (2:05)
02. L’au-delà (3:44)
03. Love Song (3:39)
04. C’est quoi ? (3:03)
05. Les espaces & les sentiments (3:30)
06. Prends garde à moi (4:05)
07. Tu pars comme on revient (3:35)
08. Rocking-Chair (4:10)
09. Station Quatre-Septembre (3:17)
10. Tu vois c’ que j’vois (4:47)
11. L'interlude (1:45)
12. La crème (3:03)
13. Le rempart (3:28)
14. Mi amor (3:16)
15. New Year (3:21)
16. Tu si na cosa grande (2:58)
17. Etre celle (3:37)
18. Doorway (2:54)
19. La chanson des vieux cons (5:38)
20. Les Roses roses (4:17)
Known in America primarily for her film and modeling careers, Vanessa first captured attention for her impressive musical debut in 1987. Her single, “Joe le Taxi,” reached Number 1 on the charts in multiple countries when she was only 14 years old. In the years since, she has continued to earn acclaim as a singer, serving as muse to such varied songwriters and producers as Serge Gainsbourg, Lenny Kravitz and, most recently, the French electropop star Matthieu Chedid (who performs as “—M—”). Her recent studio album Divinidylle won her two major Victoires de la Musique awards (the French equivalent of Grammys): Album of the Year and Female Singer.
Best Of features Paradis’ most recognizable songs from a career that spans just over twenty years along with previously unreleased bonus tracks including “Il Y A” (There Is) and the Cole Porter classic “I Love Paris”. Another selection from the impressive track listing is “Be My Baby” -- written and produced by American rock musician Lenny Kravitz on her self-titled English language album.
As she has proven time and again with her continued international success, Vanessa Paradis’ instrument is one that transcends borders and language by conveying a refreshing purity that has become so rare in a world of manufactured talent. She will no doubt continue to win fans by bringing her greatest hits stateside and performing for lucky audiences in New York and Los Angeles.
Personnel:
Vanessa Paradis and Band:
Philippe Almosnino, guitares
Raphaël Chassin, batteries, percussions
Reyn Ouwehand, claviers, guitares
Nicolas Fiszman, basses, guitares
Benjamin Biolay, piano, trombone, violon
and
l'Orchestre à Rayonnement Régional de Lion
Код: Выделить всё
[i][b]CD 1[/b][/i]
foobar2000 1.3.8 / Dynamic Range Meter 1.1.1
log date: 2015-07-16 09:26:46
--------------------------------------------------------------------------------
Analyzed: Vanessa Paradis, Orchestre du Conservatoire à Rayonnement Régional de Lyon &  Benjamin Biolay / Love Songs Tour
--------------------------------------------------------------------------------
DR         Peak         RMS     Duration Track
--------------------------------------------------------------------------------
DR7        0.00 dB    -8.99 dB      3:55 01-Pas besoin de permis
DR6        0.00 dB    -8.38 dB      1:59 02-Intro (Vanessa Paradis / Love Songs Tour)
DR9        0.00 dB   -11.46 dB      2:54 03-Il y a
DR5        0.00 dB    -6.74 dB      3:08 04-La Seine
DR5        0.00 dB    -6.71 dB      3:25 05-Natural High
DR7        0.00 dB    -9.10 dB      3:35 06-Station Quatre-Septembre
DR7        0.00 dB    -8.71 dB      3:26 07-Pourtant
DR6        0.00 dB    -7.49 dB      3:59 08-Tandem
DR6        0.00 dB    -7.10 dB      3:45 09-Sunday Mondays
DR6        0.00 dB    -7.79 dB      3:51 10-Joe le taxi
DR6        0.00 dB    -7.20 dB      2:56 11-L’incendie
DR6        0.00 dB    -8.77 dB      3:51 12-Dis-lui toi que je t'aime
DR5        0.00 dB    -6.15 dB      3:50 13-Commando
DR8        0.00 dB   -11.10 dB      4:31 14-Le rempart
DR7        0.00 dB    -7.61 dB      3:45 15-Pas besoin de permis
DR7        0.00 dB    -8.69 dB      4:19 16-Marilyn & John
DR5        0.00 dB    -6.24 dB      2:44 17-Divine idylle
DR5        0.00 dB    -6.82 dB      4:31 18-Tu vois c’que j’vois
DR5        0.00 dB    -7.04 dB      5:46 19-Love Song
--------------------------------------------------------------------------------
Number of tracks:  19
Official DR value: DR6
Samplerate:        44100 Hz
Channels:          2
Bits per sample:   24
Bitrate:           1728 kbps
Codec:             FLAC
================================================================================
[i][b]CD 2[/b][/i]
foobar2000 1.3.8 / Dynamic Range Meter 1.1.1
log date: 2015-07-16 09:28:17
--------------------------------------------------------------------------------
Analyzed: Vanessa Paradis, Orchestre du Conservatoire à Rayonnement Régional de Lyon &  Benjamin Biolay / Love Songs Tour
--------------------------------------------------------------------------------
DR         Peak         RMS     Duration Track
--------------------------------------------------------------------------------
DR13      -0.88 dB   -19.04 dB      2:05 01-L'ouverture
DR9        0.00 dB   -11.08 dB      3:44 02-L’au-delà
DR7        0.00 dB    -8.24 dB      3:39 03-Love Song
DR10       0.00 dB   -12.82 dB      3:03 04-C’est quoi ?
DR6        0.00 dB    -8.17 dB      3:30 05-Les espaces & les sentiments
DR6        0.00 dB    -8.90 dB      4:05 06-Prends garde à moi
DR5        0.00 dB    -8.28 dB      3:35 07-Tu pars comme on revient
DR7        0.00 dB    -9.92 dB      4:10 08-Rocking-Chair
DR7        0.00 dB    -9.09 dB      3:17 09-Station Quatre-Septembre
DR7        0.00 dB    -8.85 dB      4:47 10-Tu vois c’ que j’vois
DR10      -1.31 dB   -17.94 dB      1:45 11-L'interlude
DR10       0.00 dB   -13.34 dB      3:03 12-La crème
DR11       0.00 dB   -14.29 dB      3:28 13-Le rempart
DR6        0.00 dB    -7.81 dB      3:16 14-Mi amor
DR10       0.00 dB   -11.41 dB      3:21 15-New Year
DR11      -0.04 dB   -15.12 dB      2:58 16-Tu si na cosa grande
DR11      -2.35 dB   -16.62 dB      3:37 17-Etre celle
DR6        0.00 dB    -7.90 dB      2:54 18-Doorway
DR9        0.00 dB   -13.83 dB      5:38 19-La chanson des vieux cons
DR8        0.00 dB   -11.10 dB      4:17 20-Les Roses roses
--------------------------------------------------------------------------------
Number of tracks:  20
Official DR value: DR8
Samplerate:        44100 Hz
Channels:          2
Bits per sample:   24
Bitrate:           1542 kbps
Codec:             FLAC
================================================================================
При скачивании, если необходимо, переименуйте папку, в которой будет находиться альбом
Большая просьба к скачавшим поддерживать раздачу! Помогайте другим, ведь вам тоже может понадобиться помощь!
Не забываем говорить "Спасибо"!
Комментарии приветствуются!
Vanessa Paradis Hi-Res[/spoiler]
Не забывайте говорить Спасибо. Не уходите с раздачи!   
Торрент: Зарегистрирован [16 июл 2015, 07:30]
Статус:
Проверен
 
.torrent скачан: 0 раз
Хэш: f17d2b4d7fe4c28b9f437f25a00d22ccc5d6f01b
Размер: 1.6 ГБ (1 714 947 414 байт)
   Стать Автором раздачи
   
Цитата
  • Похожие торренты
    Ответы
    Просмотры
    Последнее сообщение

Вернуться в Поп-музыка (Hi-Res stereo)

Кто сейчас на конференции

Сейчас эту тему просматривают: нет зарегистрированных пользователей и гости: 1