[TR24][OF] Holly Henry - 2 релиза: 2014 - Hide and Seek; 2016 - King Paten (Indie Folk)

 Статистика раздачи 
Размер: 271.75 МБ   |  Зарегистрирован: 17 дек 2016, 16:45   |   .torrent скачан: 0 раз
Сидеров: 0  [ 0 байт/сек ]     Личеров: 0  [ 0 байт/сек ]  
  
Аватара пользователя
Главный редактор
Главный редактор
 
Раздал: 90.01 ТБ
Скачал: 3.78 ТБ
Ратио: 24.248
Сообщения: 274856
Стаж: 9 лет 1 месяц 20 дней
Откуда: Санкт-Петербург

Holly Henry
Формат записи/Источник записи: [TR24][OF]
Наличие водяных знаков: Нет
Годы издания: 2014-2016
Жанр: Indie Folk
Общая продолжительность: 00:38:29
Наличие сканов в содержимом раздачи: Только обложка альбома
Издатель(лейбл): Holly Henry
Продолжительность: 00:04:08
Источник (релизер): bandcamp
Треклист:
01. Hide and Seek [4:08]
Контейнер: FLAC (*.flac)
Тип рипа: tracks
Разрядность: 24/88.2
Формат: PCM
Количество каналов: 2.0
Код: Выделить всё
foobar2000 1.3.12 / Dynamic Range Meter 1.1.1
log date: 2016-12-17 16:24:18
--------------------------------------------------------------------------------
Statistics for: 01-Hide and Seek
Number of samples: 21833728
Duration: 4:08
--------------------------------------------------------------------------------
                 Left              Right
Peak Value:     -0.10 dB   ---     -0.10 dB
Avg RMS:        -8.84 dB   ---     -9.73 dB
DR channel:      5.14 dB   ---      6.17 dB
--------------------------------------------------------------------------------
Official DR Value: DR6
Samplerate:        88200 Hz
Channels:          2
Bits per sample:   24
Bitrate:           2548 kbps
Codec:             FLAC
================================================================================
#77Издатель(лейбл): Holly Henry
Продолжительность: 00:34:21
Источник (релизер): bandcamp
Треклист:
01. Powder Blue Earth [2:38]
02. Citrus [2:54] [16-bit]
03. Crawl [2:46] [16-bit]
04. In Between [4:04] [16-bit]
05. White Knuckles [3:26] [16-bit]
06. Intermission [1:19] [16-bit]
07. Warrior [3:27] [16-bit]
08. Coriander/Chamomile [3:53] [16-bit]
09. Joan of Arc [3:20] [16-bit]
10. Roswell [4:06] [16-bit]
11. King Paten [2:30] [16-bit]
Контейнер: FLAC (*.flac)
Тип рипа: tracks
Разрядность: 24/44.1; 16/44.1
Формат: PCM
Количество каналов: 2.0
Код: Выделить всё
foobar2000 1.3.12 / Dynamic Range Meter 1.1.1
log date: 2016-12-17 16:09:34
--------------------------------------------------------------------------------
Statistics for: 01-Powder Blue Earth
Number of samples: 6971872
Duration: 2:38
--------------------------------------------------------------------------------
                 Left              Right
Peak Value:     -0.70 dB   ---     -0.70 dB
Avg RMS:       -12.04 dB   ---    -11.75 dB
DR channel:      8.45 dB   ---      8.13 dB
--------------------------------------------------------------------------------
Official DR Value: DR8
Samplerate:        44100 Hz
Channels:          2
Bits per sample:   24
Bitrate:           1479 kbps
Codec:             FLAC
================================================================================
foobar2000 1.3.12 / Dynamic Range Meter 1.1.1
log date: 2016-12-17 16:09:40
--------------------------------------------------------------------------------
Analyzed: Holly Henry / King Paten
--------------------------------------------------------------------------------
DR         Peak         RMS     Duration Track
--------------------------------------------------------------------------------
DR10      -1.76 dB   -16.28 dB      2:54 02-Citrus
DR9       -0.20 dB   -10.13 dB      2:46 03-Crawl
DR9       -0.20 dB   -11.80 dB      4:04 04-In Between
DR9       -0.20 dB   -11.72 dB      3:26 05-White Knuckles
DR9       -1.78 dB   -14.08 dB      1:19 06-Intermission
DR8       -0.20 dB   -11.47 dB      3:27 07-Warrior
DR11      -0.20 dB   -13.95 dB      3:53 08-Coriander/Chamomile
DR10      -0.24 dB   -12.61 dB      3:20 09-Joan of Arc
DR9       -0.20 dB   -12.64 dB      4:06 10-Roswell
DR9       -0.20 dB   -12.34 dB      2:30 11-King Paten
--------------------------------------------------------------------------------
Number of tracks:  10
Official DR value: DR9
Samplerate:        44100 Hz
Channels:          2
Bits per sample:   16
Bitrate:           734 kbps
Codec:             FLAC
================================================================================
Внимание! Для получения полной дискографии необходимо скачать также данную раздачу. Обе попадают в одну и ту же папку.
Не забывайте говорить Спасибо. Не уходите с раздачи!   
Торрент: Зарегистрирован [17 дек 2016, 16:45]
Статус:
Проверен
 
.torrent скачан: 0 раз
Хэш: 7b6cb2a7ddecaf6b5c324974a5466ccb4e675eef
Размер: 271.75 МБ (284 945 385 байт)
   Стать Автором раздачи
   
Цитата

Вернуться в Поп-музыка (Hi-Res stereo)

Кто сейчас на конференции

Сейчас эту тему просматривают: нет зарегистрированных пользователей и гости: 1