[TR24][OF] Mylene Farmer - Rolling Stone [EP] - 2018 (Chanson française)

 Статистика раздачи 
Размер: 258.71 МБ   |  Зарегистрирован: 30 апр 2018, 19:50   |   .torrent скачан: 0 раз
Сидеров: 0  [ 0 байт/сек ]     Личеров: 0  [ 0 байт/сек ]  
  
Аватара пользователя
Главный редактор
Главный редактор
 
Раздал: 90.01 ТБ
Скачал: 3.78 ТБ
Ратио: 24.248
Сообщения: 274856
Стаж: 9 лет 1 месяц 20 дней
Откуда: Санкт-Петербург

Mylene Farmer / Rolling Stone [EP]
Формат записи/Источник записи: [TR24][OF]
Наличие водяных знаков: Нет
Год издания/переиздания диска: 2018
Жанр: Chanson française
Издатель (лейбл): Stuffed Monkey
Продолжительность: 00:20:48
Наличие сканов в содержимом раздачи: Только обложка альбома
Треклист:
1. Rolling Stone
2. Rolling Stone (Mokoa Remix)
3. Rolling Stone (JVNO Remix)
4. Rolling Stone (FDVM Remix)
5. Rolling Stone (Jen Jis Remix)
6. Rolling Stone (LeMarquis Remix)
Контейнер: FLAC (*.flac)
Тип рипа: tracks
Разрядность: 24/48
Формат: PCM
Количество каналов: 2.0
Код: Выделить всё
foobar2000 1.3.13 / Замер динамического диапазона (DR) 1.1.1
Дата отчёта:  2018-04-30 20:23:12
--------------------------------------------------------------------------------
Анализ:   Mylène Farmer / Rolling Stone EP
--------------------------------------------------------------------------------
DR         Пики         RMS           Продолжительность трека
--------------------------------------------------------------------------------
DR6       -0.01 дБ    -8.03 дБ      3:46 01-Rolling Stone
DR6       -0.01 дБ    -7.93 дБ      3:12 02-Rolling Stone (Mokoa Remix)
DR5       -0.01 дБ    -7.29 дБ      3:39 03-Rolling Stone (JVNO Remix)
DR5        0.00 дБ    -6.91 дБ      3:05 04-Rolling Stone (FDVM Remix)
DR4       -0.01 дБ    -6.33 дБ      3:44 05-Rolling Stone (Jen Jis Remix)
DR4       -0.01 дБ    -6.36 дБ      3:26 06-Rolling Stone (Lemarquis Remix)
--------------------------------------------------------------------------------
Количество треков: 6
Реальные значения DR: DR5
Частота:   48000 Гц
Каналов:   2
Разрядность:   24
Битрейт:   1688 кбит/с
Кодек:   FLAC
================================================================================
Источник (релизер): Qobuz
Не забывайте говорить Спасибо. Не уходите с раздачи!   
Торрент: Зарегистрирован [30 апр 2018, 19:50]
Статус:
Проверен
 
.torrent скачан: 0 раз
Хэш: 8904072cf7ac135fd03154f763bbbba12cc0ab04
Размер: 258.71 МБ (271 282 222 байт)
   Стать Автором раздачи
   
Цитата

Вернуться в Поп-музыка (Hi-Res stereo)

Кто сейчас на конференции

Сейчас эту тему просматривают: нет зарегистрированных пользователей и гости: 1