[TR24][OF] Oldelaf - Dimanche - 2014 (French Pop)

 Статистика раздачи 
Размер: 511.69 МБ   |  Зарегистрирован: 20 дек 2017, 11:51   |   .torrent скачан: 0 раз
Сидеров: 0  [ 0 байт/сек ]     Личеров: 0  [ 0 байт/сек ]  
  
Аватара пользователя
Главный редактор
Главный редактор
Я на сайте
 
Раздал: 90.01 ТБ
Скачал: 3.78 ТБ
Ратио: 24.248
Сообщения: 273585
Стаж: 9 лет 1 месяц 11 дней
Откуда: Санкт-Петербург
СообщениеДобавлено: 20 дек 2017, 11:51


Oldelaf - Dimanche
Формат записи/Источник записи: [TR24][OF]
Наличие водяных знаков: Нет
Год издания/переиздания диска: 2014
Жанр: French Pop
Издатель (лейбл): Roy Music
Продолжительность: 44:29
Наличие сканов в содержимом раздачи: Только обложка альбома
Треклист:
01. Le bruit (2:32)
02. Je mange (3:35)
03. Kleenex (2:50)
04. La belle histoire (2:49)
05. Joli dimanche (3:15)
06. Qu'est ce qu'on va en faire (3:04)
07. Nos jours heureux (4:05)
08. Ça changera rien (3:33)
09. Le dimanche après-midi (3:26)
10. Digicode (2:42)
11. Je suis bien (2:56)
12. Je ne sais pas (3:57)
13. Stockholm (5:47) 

Контейнер: FLAC (*.flac)
Тип рипа: tracks
Разрядность: 24/44,1
Формат: PCM
Количество каналов: 2.0
Код: Выделить всё
foobar2000 1.3.9 / Dynamic Range Meter 1.1.1
log date: 2017-12-20 14:34:09
--------------------------------------------------------------------------------
Analyzed: Oldelaf / Dimanche
--------------------------------------------------------------------------------
DR         Peak         RMS     Duration Track
--------------------------------------------------------------------------------
DR7       -0.01 dB    -8.45 dB      2:32 01-Le bruit
DR8       -0.01 dB    -9.33 dB      3:35 02-Je mange
DR7       -0.01 dB    -8.83 dB      2:50 03-Kleenex
DR6       -0.01 dB    -7.59 dB      2:49 04-La belle histoire
DR10      -0.01 dB   -12.02 dB      3:15 05-Joli dimanche
DR7       -0.21 dB    -8.79 dB      3:04 06-Qu'est ce qu'on va en faire
DR7       -0.01 dB    -8.72 dB      4:05 07-Nos jours heureux
DR7       -0.01 dB    -9.49 dB      3:33 08-Ça changera rien
DR8       -0.01 dB    -9.57 dB      3:26 09-Le dimanche après-midi
DR7       -0.02 dB    -8.50 dB      2:42 10-Digicode
DR7       -0.02 dB    -8.81 dB      2:56 11-Je suis bien
DR7       -0.02 dB    -8.31 dB      3:57 12-Je ne sais pas
DR7        0.00 dB   -10.74 dB      5:47 13-Stockholm
--------------------------------------------------------------------------------
Number of tracks:  13
Official DR value: DR7
Samplerate:        44100 Hz
Channels:          2
Bits per sample:   24
Bitrate:           1365 kbps
Codec:             FLAC
================================================================================
Источник: 7digital.com[/spoiler]
Не забывайте говорить Спасибо. Не уходите с раздачи!   
Торрент: Зарегистрирован [20 дек 2017, 11:51]
Статус:
Проверен
 
.torrent скачан: 0 раз
Хэш: 07d21f855615f783276dd1e1683cc5a2216323de
Размер: 511.69 МБ (536 544 825 байт)
   Стать Автором раздачи
   
Цитата

Вернуться в Поп-музыка (Hi-Res stereo)

Кто сейчас на конференции

Сейчас эту тему просматривают: нет зарегистрированных пользователей и гости: 1