[TR24][OF] The Three Suns - A Ding Dong Dandy Christmas (Reissue) - 1959/2014 (Pop, Easy Listening, Christmas)

 Статистика раздачи 
Размер: 774.38 МБ   |  Зарегистрирован: 28 май 2016, 12:44   |   .torrent скачан: 0 раз
Сидеров: 0  [ 0 байт/сек ]     Личеров: 0  [ 0 байт/сек ]  
  
Аватара пользователя
Главный редактор
Главный редактор
 
Раздал: 90.01 ТБ
Скачал: 3.78 ТБ
Ратио: 24.248
Сообщения: 274043
Стаж: 9 лет 1 месяц 16 дней
Откуда: Санкт-Петербург

The Three Suns - A Ding Dong Dandy Christmas
Формат записи/Источник записи: [TR24][OF]
Наличие водяных знаков: Нет
Издание: Reissue
Год издания/переиздания диска: 1959/2014
Жанр: Pop, Easy Listening, Christmas
Издатель(лейбл): RCA Records
Продолжительность: 35:34
Наличие сканов в содержимом раздачи: Только обложка альбома

Треклист:
01. Santa Claus Is Comin' To Town (2:04)
02. Skater's Waltz (2:56)
03. The Chipmunk Song (Christmas Don't Be Late) (2:04)
04. White Christmas (3:06)
05. Ding Dong Dandy Christmas (2:55)
06. The Christmas Song (Remastered 1996) (2:31)
07. Russian Sleigh Song (2:39)
08. Jingle Bells (2:42)
09. Let It Snow! Let It Snow! Let It Snow! (2:20)
10. Rudolph The Red-Nosed Reindeer (2:01)
11. Jingle Bell Rock (2:13)
12. Sleigh Ride (2:57)
13. I Saw Mommy Kissing Santa Claus (2:22)
14. Winter Wonderland (2:44) 

Контейнер: FLAC (*.flac)
Тип рипа: tracks
Разрядность: 24/96
Количество каналов: 2.0
Код: Выделить всё
foobar2000 1.3.9 / Dynamic Range Meter 1.1.1
log date: 2016-05-28 15:22:21
--------------------------------------------------------------------------------
Analyzed: The Three Suns / A Ding Dong Dandy Christmas
--------------------------------------------------------------------------------
DR         Peak         RMS     Duration Track
--------------------------------------------------------------------------------
DR10      -1.42 dB   -14.30 dB      2:04 01-Santa Claus Is Comin' To Town
DR11      -2.19 dB   -15.93 dB      2:56 02-Skater's Waltz
DR9       -1.55 dB   -13.41 dB      2:04 03-The Chipmunk Song (Christmas Don't Be Late)
DR10      -1.52 dB   -14.27 dB      3:06 04-White Christmas
DR9       -1.33 dB   -13.87 dB      2:55 05-Ding Dong Dandy Christmas
DR9       -3.45 dB   -17.03 dB      2:31 06-The Christmas Song (Remastered 1996)
DR9       -0.98 dB   -12.75 dB      2:39 07-Russian Sleigh Song
DR10      -1.36 dB   -13.86 dB      2:42 08-Jingle Bells
DR10      -0.97 dB   -13.52 dB      2:20 09-Let It Snow! Let It Snow! Let It Snow!
DR9       -1.32 dB   -14.03 dB      2:01 10-Rudolph The Red-Nosed Reindeer
DR9       -1.69 dB   -13.66 dB      2:13 11-Jingle Bell Rock
DR11      -1.42 dB   -14.42 dB      2:57 12-Sleigh Ride
DR10      -1.37 dB   -14.03 dB      2:22 13-I Saw Mommy Kissing Santa Claus
DR10      -1.36 dB   -14.03 dB      2:44 14-Winter Wonderland
--------------------------------------------------------------------------------
Number of tracks:  14
Official DR value: DR10
Samplerate:        96000 Hz
Channels:          2
Bits per sample:   24
Bitrate:           2987 kbps
Codec:             FLAC
================================================================================
Источник: acousticsounds.com[/spoiler]
Не забывайте говорить Спасибо. Не уходите с раздачи!   
Торрент: Зарегистрирован [28 май 2016, 12:44]
Статус:
Проверен
 
.torrent скачан: 0 раз
Хэш: edef1bdf3c2e85e6e91eb28576d4ea74af2103ab
Размер: 774.38 МБ (811 992 334 байт)
   Стать Автором раздачи
   
Цитата

Вернуться в Поп-музыка (Hi-Res stereo)

Кто сейчас на конференции

Сейчас эту тему просматривают: нет зарегистрированных пользователей и гости: 1