[TR24][OF] Broods - Conscious - 2016 (Alternative)

 Статистика раздачи 
Размер: 1017.93 МБ   |  Зарегистрирован: 16 янв 2017, 16:48   |   .torrent скачан: 0 раз
Сидеров: 0  [ 0 байт/сек ]     Личеров: 0  [ 0 байт/сек ]  
  
Аватара пользователя
Главный редактор
Главный редактор
Я на сайте
 
Раздал: 90.01 ТБ
Скачал: 3.78 ТБ
Ратио: 24.248
Сообщения: 273922
Стаж: 9 лет 1 месяц 15 дней
Откуда: Санкт-Петербург
СообщениеДобавлено: 16 янв 2017, 16:48


Broods - Conscious
Источник записи
: [TR24][OF]
Год издания диска: 2016
Жанр: Alternative
Издатель(лейбл): Capitol Records
Продолжительность: 00:48:14

01. Free
(3:44)
02. We Had Everything (3:23)
03. Are You Home (4:02)
04. Heartlines (3:17)
05. Hold The Line (3:33)
06. Freak Of Nature (feat. Tove Lo) (4:00)
07. All Of Your Glory (3:02)
08. Recovery (3:58)
09. Couldn't Believe (4:04)
10. Full Blown Love (3:30)
11. Worth The Fight (4:03)
12. Bedroom Door (3:37)
13. Conscious (4:01)
Контейнер: FLAC (*.flac)
Тип рипа: 24bit/96kHz stereo tracks

Формат: PCM
Код: Выделить всё
foobar2000 1.3.14 / Dynamic Range Meter 1.1.1
log date: 2017-01-16 06:22:08
--------------------------------------------------------------------------------
Analyzed: Broods / Conscious
--------------------------------------------------------------------------------
DR         Peak         RMS     Duration Track
--------------------------------------------------------------------------------
DR4        0.00 dB    -5.66 dB      3:44 01-Free
DR3        0.00 dB    -5.37 dB      3:23 02-We Had Everything
DR5        0.00 dB    -6.27 dB      4:02 03-Are You Home
DR4        0.00 dB    -6.10 dB      3:17 04-Heartlines
DR5        0.00 dB    -7.24 dB      3:33 05-Hold The Line
DR4        0.00 dB    -7.81 dB      4:00 06-Freak Of Nature (feat. Tove Lo)
DR10       0.00 dB   -12.61 dB      3:02 07-All Of Your Glory
DR4        0.00 dB    -6.50 dB      3:58 08-Recovery
DR4        0.00 dB    -5.72 dB      4:04 09-Couldn't Believe
DR3        0.00 dB    -5.27 dB      3:30 10-Full Blown Love
DR4        0.00 dB    -6.13 dB      4:03 11-Worth The Fight
DR5        0.00 dB    -6.75 dB      3:37 12-Bedroom Door
DR3        0.00 dB    -6.23 dB      4:01 13-Conscious
--------------------------------------------------------------------------------
Number of tracks:  13
Official DR value: DR5
Samplerate:        96000 Hz
Channels:          2
Bits per sample:   24
Bitrate:           2969 kbps
Codec:             FLAC
================================================================================
Не забывайте говорить Спасибо. Не уходите с раздачи!   
Торрент: Зарегистрирован [16 янв 2017, 16:48]
Статус:
Проверен
 
.torrent скачан: 0 раз
Хэш: 002343ba1239c7222ef73d80b8005dfcfc4c22d1
Размер: 1017.93 МБ (1 067 380 086 байт)
   Стать Автором раздачи
   
Цитата
  • Похожие торренты
    Ответы
    Просмотры
    Последнее сообщение

Вернуться в Поп-музыка (Hi-Res stereo)

Кто сейчас на конференции

Сейчас эту тему просматривают: нет зарегистрированных пользователей и гости: 1