[SACD-R][OF] Jeff Chang - The Essential Jeff Chang (Greatest Hits) - 2014 (Chinese Pop)

 Статистика раздачи 
Размер: 1.1 ГБ   |  Зарегистрирован: 08 авг 2015, 21:00   |   .torrent скачан: 0 раз
Сидеров: 0  [ 0 байт/сек ]     Личеров: 0  [ 0 байт/сек ]  
  
Аватара пользователя
Главный редактор
Главный редактор
 
Раздал: 90.01 ТБ
Скачал: 3.78 ТБ
Ратио: 24.248
Сообщения: 274043
Стаж: 9 лет 1 месяц 16 дней
Откуда: Санкт-Петербург

Jeff Chang / The Essential Jeff Chang
Формат записи/Источник записи: [SACD-R][OF]
Наличие водяных знаков: Нет
Издание: Greatest Hits
Год издания/переиздания диска: 2014
Жанр: Chinese Pop
Издатель(лейбл): Sony Music Entertainment Hong Kong Ltd
Продолжительность: 01:07:51
Наличие сканов в содержимом раздачи: Да
Треклист:
01. Ai Ru Chao Shui
02. Bie Pa Wo Shang Xin
03. You Yi Dian Dong Xin
04. Rang Wo Wang Ji Ni De
05. Nan Yi Kang Ju Ni Rong Yan
06. Wo Meng Ai Zhe Ge Cuo
07. You Ni Zhen De Hui Kuai Le Ma
08. Wo Shi Zhen De Ai Ni
09. Zui Xiang Nian De Ji Jie
10. Ni Zhi Dao Ying Gai Ru He Ai Zhu Wo
11. Zhi Dao
12. Xiang Xing Xiang Yi
13. Xin Ai Bao Bei
14. Gei Wo Yi Xie Yin Le
15. Ai Yi Cheng Feng
16. Ceng Jing Ai Guo
Контейнер: ISO (*.iso)
Тип рипа: image
Разрядность: 64 (2,8 MHz/1 Bit)
Формат: DST64
Количество каналов: 2.0
Источник (релизер): ManWhoCan
foobar2000 1.3.8 / Dynamic Range Meter 1.1.1
log date: 2015-08-08 23:30:20
--------------------------------------------------------------------------------
Analyzed: Jeff Chang / ?
--------------------------------------------------------------------------------
DR Peak RMS Duration Track
--------------------------------------------------------------------------------
DR12 -4.10 dB -17.99 dB 4:30 01-Ai Ru Chao Shui
DR13 -4.11 dB -20.51 dB 4:45 02-Bie Pa Wo Shang Xin
DR13 -4.22 dB -19.88 dB 3:47 03-You Yi Dian Dong Xin
DR12 -4.18 dB -18.52 dB 3:28 04-Rang Wo Wang Ji Ni De
DR13 -4.26 dB -19.01 dB 3:52 05-Nan Yi Kang Ju Ni Rong Yan
DR12 -4.04 dB -18.34 dB 3:24 06-Wo Meng Ai Zhe Ge Cuo
DR14 -4.15 dB -19.88 dB 5:22 07-You Ni Zhen De Hui Kuai Le Ma
DR13 -4.15 dB -20.67 dB 5:03 08-Wo Shi Zhen De Ai Ni
DR13 -4.37 dB -19.75 dB 4:23 09-Zui Xiang Nian De Ji Jie
DR12 -5.63 dB -19.43 dB 4:44 10-Ni Zhi Dao Ying Gai Ru He Ai Zhu Wo
DR13 -4.10 dB -19.31 dB 3:44 11-Zhi Dao
DR13 -3.86 dB -19.06 dB 4:27 12-Xiang Xing Xiang Yi
DR13 -4.12 dB -19.34 dB 4:10 13-Xin Ai Bao Bei
DR12 -4.31 dB -17.98 dB 3:36 14-Gei Wo Yi Xie Yin Le
DR11 -3.74 dB -17.70 dB 4:32 15-Ai Yi Cheng Feng
DR11 -4.54 dB -18.79 dB 4:05 16-Ceng Jing Ai Guo
--------------------------------------------------------------------------------
Number of tracks: 16
Official DR value: DR12
Samplerate: 2822400 Hz / PCM Samplerate: 352800 Hz
Channels: 2
Bits per sample: 24
Bitrate: 5645 kbps
Codec: DST64
================================================================================
Jeff Chang (born Jeffrey Chang Shin-Che on 26 March 1967) is a Taiwanese male singer, who performs sentimental Mandarin pop ballads.
Chang was born in Yunlin, Taiwan. He started off his showbiz career by winning a singing competition while in college. Since 1989 he has released a string of highly successful albums & is known as the "Prince of Love Ballads" in the Chinese pop world. His name is well known across Taiwan, Hong Kong, Southeast Asia & mainland China.
http://www.yesasia.com/us/the-essential-jeff-chang-sacd-limited-edition/103531600...0-0-en/info.html
Не забывайте говорить Спасибо. Не уходите с раздачи!   
Торрент: Зарегистрирован [08 авг 2015, 21:00]
Статус:
Проверен
 
.torrent скачан: 0 раз
Хэш: 8b153be133f7e315b709550689eb22afd5ac16d7
Размер: 1.1 ГБ (1 181 720 190 байт)
   Стать Автором раздачи
   
Цитата
  • Похожие торренты
    Ответы
    Просмотры
    Последнее сообщение

Вернуться в Поп-музыка (Hi-Res stereo)

Кто сейчас на конференции

Сейчас эту тему просматривают: нет зарегистрированных пользователей и гости: 1