[TR24][OF] Rufus Wainwright - Out Of The Game (Official Digital Download) - 2012 (Pop-Rock)

 Статистика раздачи 
Размер: 953.81 МБ   |  Зарегистрирован: 13 июн 2015, 10:25   |   .torrent скачан: 0 раз
Сидеров: 0  [ 0 байт/сек ]     Личеров: 0  [ 0 байт/сек ]  
  
Аватара пользователя
Главный редактор
Главный редактор
Я на сайте
 
Раздал: 90.01 ТБ
Скачал: 3.78 ТБ
Ратио: 24.248
Сообщения: 273585
Стаж: 9 лет 1 месяц 11 дней
Откуда: Санкт-Петербург

Rufus Wainwright / Out Of The Game (Official Digital Download)
Формат записи/Источник записи: [TR24][OF]
Наличие водяных знаков: Нет
Год издания/переиздания диска: 2012
Жанр: Pop-Rock
Издатель(лейбл): Decca
Продолжительность: 00:50:27
Наличие сканов в содержимом раздачи: Нет
Треклист:
1. Out Of The Game
2. Jericho
3. Rashida
4. Barbara
5. Welcome To The Ball
6. Montauk.flac
7. Bitter Tears
8. Respectable Dive
9. Perfect Man
10. Sometimes You Need
11. Song Of You
12. Candles
Контейнер: FLAC (*.flac)
Тип рипа: tracks
Разрядность: 24/88,2
Формат: PCM
Количество каналов: 2.0
Источник (релизер): HDTracks
Rufus Wainwright
Affectionately referred to by Elton John as “the greatest songwriter on the planet” and praised by the New York Times for his “genuine originality,” Grammy nominee Rufus Wainwright has established himself as one of the great male vocalists and songwriters of his generation. He is the son of folk singers Loudon Wainwright III and Kate McGarrigle, and brother of Martha Wainwright, but Rufus has achieved his success by carving out his own singular sound in the worlds of rock, opera, theater, dance and film.
Regarded by Elton John as the greatest songwriter on the planet, piano-pop virtuoso Rufus Wainwright releases his seventh studio recording, Out Of The Game. Conveyed with his signature wit and story-telling, Wainwright crosses boundaries, delving into the realms of pop, soul and jazz. With lush strings and horns, this thrilling and energetic release includes the raw and emotional hit “Sometimes You Need” and the pop gem “Perfect Man.” The album is a definitive release in a long and celebrated career.
--------------------------------------------------------------------------------
Analyzed: Rufus Wainwright / Out Of The Game
--------------------------------------------------------------------------------
DR Peak RMS Duration Track
--------------------------------------------------------------------------------
DR10 0.00 dB -11.59 dB 4:06 01-Out Of The Game
DR7 -0.20 dB -9.76 dB 3:44 02-Jericho
DR11 -0.58 dB -13.46 dB 3:00 03-Rashida
DR10 -0.30 dB -12.78 dB 3:56 04-Barbara
DR10 -0.46 dB -13.39 dB 3:26 05-Welcome To The Ball
DR10 -1.07 dB -13.40 dB 3:57 06-Montauk
DR10 -0.20 dB -13.30 dB 3:32 07-Bitter Tears
DR12 -2.75 dB -17.66 dB 4:55 08-Respectable Dive
DR10 -0.94 dB -12.91 dB 3:58 09-Perfect Man
DR10 -0.99 dB -15.07 dB 3:21 10-Sometimes You Need
DR10 -0.48 dB -13.18 dB 4:51 11-Song Of You
DR11 -1.75 dB -15.81 dB 7:42 12-Candles
--------------------------------------------------------------------------------
Number of tracks: 12
Official DR value: DR10
Samplerate: 88200 Hz
Channels: 2
Bits per sample: 24
Bitrate: 2540 kbps
Codec: FLAC
================================================================================
Материал выложен исключительно для предварительного ознакомления. После прослушивания альбом следует приобрести официально на сайте правообладателя.
Не забывайте говорить Спасибо. Не уходите с раздачи!   
Торрент: Зарегистрирован [13 июн 2015, 10:25]
Статус:
Проверен
 
.torrent скачан: 0 раз
Хэш: 86fa2c1c8e900f4201d79ee45306b7cdfaad4b90
Размер: 953.81 МБ (1 000 140 929 байт)
   Стать Автором раздачи
   
Цитата

Вернуться в Поп-музыка (Hi-Res stereo)

Кто сейчас на конференции

Сейчас эту тему просматривают: нет зарегистрированных пользователей и гости: 1