[TR24][OF] Miwa (ミワ) - Oneness - 2015 (J-Pop, Female Vocal)

 Статистика раздачи 
Размер: 1.32 ГБ   |  Зарегистрирован: 14 апр 2015, 17:02   |   .torrent скачан: 0 раз
Сидеров: 0  [ 0 байт/сек ]     Личеров: 0  [ 0 байт/сек ]  
  
Аватара пользователя
Главный редактор
Главный редактор
 
Раздал: 90.01 ТБ
Скачал: 3.78 ТБ
Ратио: 24.248
Сообщения: 274106
Стаж: 9 лет 1 месяц 17 дней
Откуда: Санкт-Петербург
СообщениеДобавлено: 14 апр 2015, 17:02


Miwa
Oneness

Год издания: 2015
Жанр: J-Pop, Female Vocal
Издатель (лейбл): Sony Music
Продолжительность: 01:00:36
Наличие сканов: Sleeve


01. ONENESS (3:55)
02. Faith (5:06)
03. fighting-Φ-girls (4:16)
04. フィロソフィー (3:14)
05. 月食 ~winter moon~ (4:53)
06. キットカナウ (4:55)
07. 君に出会えたから (4:41)
08. ストレスフリー (3:59)
09. Faraway (4:00)
10. 恋の予感 (4:05)
11. It's you! (3:57)
12. 360° (4:30)
13. super heroine (4:18)
14. 希望の環(WA) (4:46)
Контейнер: FLAC (*.flac)
Тип рипа: tracks
Разрядность: 24bits / 96kHz
Количество каналов: 2.0
Код: Выделить всё
foobar2000 1.2.2 / Dynamic Range Meter 1.1.1
log date: 2015-04-14 00:13:54
--------------------------------------------------------------------------------
Analyzed: miwa / ONENESS
--------------------------------------------------------------------------------
DR         Peak         RMS     Duration Track
--------------------------------------------------------------------------------
DR4       -0.01 dB    -5.52 dB      3:55 ?-ONENESS
DR4       -0.01 dB    -4.99 dB      5:06 ?-Faith
DR5       -0.01 dB    -6.18 dB      4:16 ?-fighting-Φ-girls
DR5       -0.01 dB    -6.60 dB      3:14 ?-フィロソフィー
DR6       -0.01 dB    -9.56 dB      4:53 ?-月食 ~winter moon~
DR5       -0.01 dB    -6.73 dB      4:55 ?-キットカナウ
DR4       -0.01 dB    -5.17 dB      4:41 ?-君に出会えたから
DR5       -0.01 dB    -5.91 dB      3:59 ?-ストレスフリー
DR5       -0.01 dB    -6.36 dB      4:00 ?-Faraway
DR5       -0.01 dB    -5.67 dB      4:05 ?-恋の予感
DR5       -0.01 dB    -6.73 dB      3:57 ?-It's you!
DR4        0.00 dB    -5.43 dB      4:30 ?-360°
DR5       -0.01 dB    -7.64 dB      4:18 ?-super heroine
DR5       -0.01 dB    -6.84 dB      4:46 ?-希望の環(WA)
--------------------------------------------------------------------------------
Number of tracks:  14
Official DR value: DR5
Samplerate:        96000 Hz
Channels:          2
Bits per sample:   24
Bitrate:           2999 kbps
Codec:             FLAC
================================================================================
При скачивании, если необходимо, переименуйте папку, в которой будет находиться альбом
Большая просьба к скачавшим поддерживать раздачу! Помогайте другим, ведь вам тоже может понадобиться помощь!
Не забываем говорить "Спасибо"!
Комментарии приветствуются!
[/spoiler]
Не забывайте говорить Спасибо. Не уходите с раздачи!   
Торрент: Зарегистрирован [14 апр 2015, 17:02]
Статус:
Проверен
 
.torrent скачан: 0 раз
Хэш: 1be7f2bc5b155f4ff743d714da2be281ed6e266c
Размер: 1.32 ГБ (1 414 021 792 байт)
   Стать Автором раздачи
   
Цитата
  • Похожие торренты
    Ответы
    Просмотры
    Последнее сообщение

Вернуться в Поп-музыка (Hi-Res stereo)

Кто сейчас на конференции

Сейчас эту тему просматривают: нет зарегистрированных пользователей и гости: 1