[TR24][OF] Kary Ng - Best Of Kary - 2018 (HK-Pop, C-Pop)

 Статистика раздачи 
Размер: 1.35 ГБ   |  Зарегистрирован: 04 апр 2018, 09:35   |   .torrent скачан: 0 раз
Сидеров: 0  [ 0 байт/сек ]     Личеров: 0  [ 0 байт/сек ]  
  
Аватара пользователя
Главный редактор
Главный редактор
 
Раздал: 90.01 ТБ
Скачал: 3.78 ТБ
Ратио: 24.248
Сообщения: 274898
Стаж: 9 лет 1 месяц 21 день
Откуда: Санкт-Петербург
СообщениеДобавлено: 04 апр 2018, 09:35


Kary Ng - Best Of Kary
Формат записи/Источник записи: [TR24][OF]
Наличие водяных знаков: Нет
Год издания/переиздания диска: 2018
Жанр: HK-Pop, C-Pop
Издатель (лейбл): Universal Music
Продолжительность: 01:58:19
Наличие сканов в содержимом раздачи: Только обложка альбома
 
 
 
Disc 1 (57:32)
01. Zui Xing Fu De Yan Lei (4:11)
02. Ai Che Di (3:57)
03. Wo Ben Ren (4:19)
04. Wu Ge Ku (3:45)
05. Wei Wan (4:26)
06. Gui Xiu (4:06)
07. Hai Ku Shi Lan (4:15)
08. Dong Jing San Yue (4:00)
09. Hen Hen (3:46)
10. Gao Bai (4:21)
11. Sheng Ming Shu (4:23)
12. Wo Yuan Yi (4:29)
13. Ren Fei Cao Mu (4:28)
14. Come With Me (feat. AF) (Dough-Boy Remix) (3:06)
 [/spoiler]Disc 2 (60:46)
01. Come With Me (feat. AF) (3:15)
02. Feng Ai Zhi Ming (4:07)
03. The First Season (4:25)
04. Fireworks (4:04)
05. Soul Mate (4:10)
06. It's My Life (3:45)
07. Liu Bu Di (3:44)
08. Mei You Hua Shou De Ri Zi (4:20)
09. Yan Xian (3:37)
10. Yi Fen Zhong Xi Ke Yi Fen Zhong Se You (4:25)
11. Xiang Ru Fei Fei (4:00)
12. Yi Qian Ge Jia Xiang Jie Ju (4:57)
13. Wo Gan Ai (4:07)
14. Liu Ying (4:20)
15. Come With Me (feat. AF) (Sidechains Remix) (3:31)[/spoiler] 

Контейнер: FLAC (*.flac)
Тип рипа: tracks
Разрядность: 24/44,1
Формат: PCM
Количество каналов: 2.0
Код: Выделить всё
foobar2000 1.3.9 / Dynamic Range Meter 1.1.1
log date: 2018-04-04 12:20:35
--------------------------------------------------------------------------------
Analyzed: Kary Ng / Best Of Kary (Disc 1)
--------------------------------------------------------------------------------
DR         Peak         RMS     Duration Track
--------------------------------------------------------------------------------
DR8        0.00 dB   -11.19 dB      4:11 01-Zui Xing Fu De Yan Lei
DR7        0.00 dB    -9.02 dB      3:57 02-Ai Che Di
DR7       -0.10 dB    -9.53 dB      4:19 03-Wo Ben Ren
DR6       -0.15 dB    -8.91 dB      3:45 04-Wu Ge Ku
DR7       -0.14 dB    -8.61 dB      4:26 05-Wei Wan
DR6        0.00 dB    -7.65 dB      4:06 06-Gui Xiu
DR6       -0.08 dB    -9.63 dB      4:15 07-Hai Ku Shi Lan
DR6       -0.33 dB    -7.84 dB      4:00 08-Dong Jing San Yue
DR7        0.00 dB    -8.77 dB      3:46 09-Hen Hen
DR7       -0.12 dB   -11.24 dB      4:21 10-Gao Bai
DR8       -0.38 dB   -12.18 dB      4:23 11-Sheng Ming Shu
DR8        0.00 dB   -12.64 dB      4:29 12-Wo Yuan Yi
DR7        0.00 dB   -10.94 dB      4:28 13-Ren Fei Cao Mu
DR5       -0.15 dB    -8.97 dB      3:06 14-Come With Me (feat. AF) (Dough-Boy Remix)
--------------------------------------------------------------------------------
Number of tracks:  14
Official DR value: DR7
Samplerate:        44100 Hz
Channels:          2
Bits per sample:   24
Bitrate:           1553 kbps
Codec:             FLAC
================================================================================
[color=red][b]**************************************************************************[/color][/b]
foobar2000 1.3.9 / Dynamic Range Meter 1.1.1
log date: 2018-04-04 12:25:05
--------------------------------------------------------------------------------
Analyzed: Kary Ng / Best Of Kary (Disc 2)
--------------------------------------------------------------------------------
DR         Peak         RMS     Duration Track
--------------------------------------------------------------------------------
DR6        0.00 dB    -7.42 dB      3:15 01-Come With Me (feat. AF)
DR7       -0.04 dB    -9.76 dB      4:07 02-Feng Ai Zhi Ming
DR6       -0.48 dB    -8.97 dB      4:25 03-The First Season
DR6        0.00 dB   -10.17 dB      4:04 04-Fireworks
DR7       -0.17 dB    -9.84 dB      4:10 05-Soul Mate
DR7       -0.47 dB    -9.27 dB      3:45 06-It's My Life
DR6       -0.06 dB   -10.05 dB      3:44 07-Liu Bu Di
DR7        0.00 dB   -10.39 dB      4:20 08-Mei You Hua Shou De Ri Zi
DR7       -0.12 dB    -9.26 dB      3:37 09-Yan Xian
DR9       -0.01 dB   -10.50 dB      4:25 10-Yi Fen Zhong Xi Ke Yi Fen Zhong Se You
DR6        0.00 dB    -7.92 dB      4:00 11-Xiang Ru Fei Fei
DR7       -0.32 dB    -8.84 dB      4:57 12-Yi Qian Ge Jia Xiang Jie Ju
DR7        0.00 dB    -9.87 dB      4:07 13-Wo Gan Ai
DR8       -0.01 dB   -10.16 dB      4:20 14-Liu Ying
DR7        0.00 dB    -9.51 dB      3:31 15-Come With Me (feat. AF) (Sidechains Remix)
--------------------------------------------------------------------------------
Number of tracks:  15
Official DR value: DR7
Samplerate:        44100 Hz
Channels:          2
Bits per sample:   24
Bitrate:           1650 kbps
Codec:             FLAC
================================================================================
Источник: qobuz.com[/spoiler]
Не забывайте говорить Спасибо. Не уходите с раздачи!   
Торрент: Зарегистрирован [04 апр 2018, 09:35]
Статус:
Проверен
 
.torrent скачан: 0 раз
Хэш: 2250e9caf5270857072f83cc2bca7dda77d9d71e
Размер: 1.35 ГБ (1 451 206 499 байт)
   Стать Автором раздачи
   
Цитата

Вернуться в Поп-музыка (Hi-Res stereo)

Кто сейчас на конференции

Сейчас эту тему просматривают: нет зарегистрированных пользователей и гости: 1