[TR24][OF] Kate Smith - Today - 1966/2016 (Pop, Vocal, Oldies)

 Статистика раздачи 
Размер: 1.54 ГБ   |  Зарегистрирован: 04 янв 2018, 09:11   |   .torrent скачан: 0 раз
Сидеров: 0  [ 0 байт/сек ]     Личеров: 0  [ 0 байт/сек ]  
  
Аватара пользователя
Главный редактор
Главный редактор
 
Раздал: 90.01 ТБ
Скачал: 3.78 ТБ
Ратио: 24.248
Сообщения: 273485
Стаж: 9 лет 1 месяц 10 дней
Откуда: Санкт-Петербург
СообщениеДобавлено: 04 янв 2018, 09:11


Kate Smith - Today
Формат записи/Источник записи: [TR24][OF]
Наличие водяных знаков: Нет
Год издания/переиздания диска: 1966/2016
Жанр: Pop, Vocal, Oldies
Издатель (лейбл): RCA/Legacy
Продолжительность: 38:40
Наличие сканов в содержимом раздачи: Только обложка альбома
Треклист:
01. Somewhere, My Love (3:27)
02. Yesterday (3:23)
03. My Best Beau (My Best Girl) (3:02)
04. Daydream (2:44)
05. I Do, I Do (2:18)
06. Who Can I Turn To (When Nobody Needs Me) (3:15)
07. The Impossible Dream (The Quest) (3:00)
08. Strangers In The Night (3:18)
09. The Ballad Of The Green Berets (3:36)
10. On A Clear Day (You Can See Forever) (3:24)
11. The Shadow Of You Smile (3:24)
12. If He Walked Into My Life (3:49) 

Контейнер: FLAC (*.flac)
Тип рипа: tracks
Разрядность: 24/192
Формат: PCM
Количество каналов: 2.0
Код: Выделить всё
foobar2000 1.3.9 / Dynamic Range Meter 1.1.1
log date: 2018-01-04 12:03:22
--------------------------------------------------------------------------------
Analyzed: Kate Smith / Today
--------------------------------------------------------------------------------
DR         Peak         RMS     Duration Track
--------------------------------------------------------------------------------
DR5       -0.48 dB    -7.75 dB      3:27 01-Somewhere, My Love
DR6       -0.48 dB    -9.11 dB      3:23 02-Yesterday
DR7       -0.48 dB    -9.97 dB      3:02 03-My Best Beau (My Best Girl)
DR6       -0.48 dB    -8.52 dB      2:44 04-Daydream
DR6       -0.48 dB    -9.64 dB      2:18 05-I Do, I Do
DR5       -0.48 dB    -8.66 dB      3:15 06-Who Can I Turn To (When Nobody Needs Me)
DR5       -0.48 dB    -8.02 dB      3:00 07-The Impossible Dream (The Quest)
DR6       -0.48 dB    -8.84 dB      3:18 08-Strangers In The Night
DR6       -0.48 dB   -10.19 dB      3:36 09-The Ballad Of The Green Berets
DR6       -0.48 dB    -9.11 dB      3:24 10-On A Clear Day (You Can See Forever)
DR7       -0.48 dB    -9.72 dB      3:24 11-The Shadow Of You Smile
DR6       -0.48 dB    -9.87 dB      3:49 12-If He Walked Into My Life
--------------------------------------------------------------------------------
Number of tracks:  12
Official DR value: DR6
Samplerate:        192000 Hz
Channels:          2
Bits per sample:   24
Bitrate:           5730 kbps
Codec:             FLAC
================================================================================
Источник: acousticsounds.com[/spoiler]
Не забывайте говорить Спасибо. Не уходите с раздачи!   
Торрент: Зарегистрирован [04 янв 2018, 09:11]
Статус:
Проверен
 
.torrent скачан: 0 раз
Хэш: 6759b8de8753319061fd16e30a6e1c1cb2f9bb19
Размер: 1.54 ГБ (1 655 701 299 байт)
   Стать Автором раздачи
   
Цитата
  • Похожие торренты
    Ответы
    Просмотры
    Последнее сообщение

Вернуться в Поп-музыка (Hi-Res stereo)

Кто сейчас на конференции

Сейчас эту тему просматривают: нет зарегистрированных пользователей и гости: 1