[TR24][OF] Joey Dosik - Inside Voice - 2018 (Pop, Soul)

 Статистика раздачи 
Размер: 755.51 МБ   |  Зарегистрирован: 25 авг 2018, 10:50   |   .torrent скачан: 0 раз
Сидеров: 0  [ 0 байт/сек ]     Личеров: 0  [ 0 байт/сек ]  
  
Аватара пользователя
Главный редактор
Главный редактор
 
Раздал: 90.01 ТБ
Скачал: 3.78 ТБ
Ратио: 24.248
Сообщения: 274788
Стаж: 9 лет 1 месяц 19 дней
Откуда: Санкт-Петербург
СообщениеДобавлено: 25 авг 2018, 10:50


Joey Dosik - Inside Voice
Формат записи/Источник записи: [TR24][OF]
Наличие водяных знаков: Нет
Год издания/переиздания диска: 2018
Жанр: Pop, Soul
Издатель (лейбл): Secretly Canadian
Продолжительность: 38:21
Наличие сканов в содержимом раздачи: Только обложка альбома
Треклист:
01. Inside Voice (3:34)
02. Get It Right (2:07)
03. Stories (2:16)
04. Take Mine (3:27)
05. Down The Middle (VHS Interlude) (1:02)
06. Past The Point (3:42)
07. Grandma Song (4:41)
08. Don’t Want It To Be Over (Ft. Coco O.) (3:37)
09. Inside Voice (Reprise) (1:04)
10. Emergency Landing (3:41)
11. In Heaven (3:39)
12. One More Time (0:50)
13. Game Winner (Stadium Version) (4:42) 

Контейнер: FLAC (*.flac)
Тип рипа: tracks
Разрядность: 24/96
Формат: PCM
Количество каналов: 2.0
Код: Выделить всё
foobar2000 1.3.9 / Dynamic Range Meter 1.1.1
log date: 2018-08-25 13:40:39
--------------------------------------------------------------------------------
Analyzed: Joey Dosik / Inside Voice
--------------------------------------------------------------------------------
DR         Peak         RMS     Duration Track
--------------------------------------------------------------------------------
DR9       -0.10 dB   -10.76 dB      3:34 01-Inside Voice
DR10      -0.10 dB   -12.03 dB      2:07 02-Get It Right
DR8       -0.10 dB    -9.57 dB      2:16 03-Stories
DR9       -0.10 dB   -11.37 dB      3:27 04-Take Mine
DR8       -0.10 dB   -10.32 dB      1:02 05-Down The Middle (VHS Interlude)
DR9       -0.10 dB   -10.44 dB      3:42 06-Past The Point
DR8       -0.10 dB   -10.74 dB      4:41 07-Grandma Song
DR8       -0.10 dB    -9.98 dB      3:37 08-Don’t Want It To Be Over (Ft. Coco O.)
DR8       -0.10 dB   -11.21 dB      1:04 09-Inside Voice (Reprise)
DR9       -0.10 dB   -11.86 dB      3:41 10-Emergency Landing
DR8       -0.10 dB    -9.21 dB      3:39 11-In Heaven
DR8       -0.10 dB   -11.32 dB      0:50 12-One More Time
DR8       -0.10 dB    -9.65 dB      4:42 13-Game Winner (Stadium Version)
--------------------------------------------------------------------------------
Number of tracks:  13
Official DR value: DR8
Samplerate:        96000 Hz
Channels:          2
Bits per sample:   24
Bitrate:           2797 kbps
Codec:             FLAC
================================================================================
Источник: qobuz.com
 
Не забывайте говорить Спасибо. Не уходите с раздачи!   
Торрент: Зарегистрирован [25 авг 2018, 10:50]
Статус:
Проверен
 
.torrent скачан: 0 раз
Хэш: 92e1026d164ce53f77e6a340f2a79c7839ac534b
Размер: 755.51 МБ (792 207 831 байт)
   Стать Автором раздачи
   
Цитата
  • Похожие торренты
    Ответы
    Просмотры
    Последнее сообщение

Вернуться в Поп-музыка (Hi-Res stereo)

Кто сейчас на конференции

Сейчас эту тему просматривают: нет зарегистрированных пользователей и гости: 1