[TR24][OF] Jesse Boykins III - Bartholomew - 2017 (Neo-Soul, Electronic)

 Статистика раздачи 
Размер: 792.36 МБ   |  Зарегистрирован: 11 дек 2017, 07:12   |   .torrent скачан: 0 раз
Сидеров: 0  [ 0 байт/сек ]     Личеров: 0  [ 0 байт/сек ]  
  
Аватара пользователя
Главный редактор
Главный редактор
Я на сайте
 
Раздал: 90.01 ТБ
Скачал: 3.78 ТБ
Ратио: 24.248
Сообщения: 274792
Стаж: 9 лет 1 месяц 19 дней
Откуда: Санкт-Петербург

Jesse Boykins III - Bartholomew
Формат записи/Источник записи: [TR24][OF]
Наличие водяных знаков: Нет
Год издания/переиздания диска: 2017
Жанр: Neo-Soul, Electronic
Издатель (лейбл): Virgin EMI
Продолжительность: 68:56
Наличие сканов в содержимом раздачи: Только обложка альбома
Треклист:
01. Earth Girls (4:09)
02. Everybody Shut Up (4:33)
03. Kumbaya In June (4:36)
04. 8 Day Weeks (2:56)
05. Into You (feat. Noname) (3:24)
06. I Need You (3:37)
07. Tomorrow (4:43)
08. Mean Girls (feat. J*DaVeY) (4:21)
09. Indie Girls (feat. Kilo Kish & Little Simz) (3:31)
10. LArain (feat. Melanie Fiona & Trinidad James) (5:22)
11. Vegetables (feat. SYD & Willow) (4:08)
12. Eye Of The Gentle Tiger (feat. Audio Push) (3:42)
13. Solar Sisters (feat. Alex Isley & Bridget Kelly) (4:37)
14. Nobody On Jupiter (feat. Dej Loaf) (3:43)
15. LikeMinded (feat. Luke James) (3:43)
16. Only Way Out (3:10)
17. No Worry (4:41) 

Контейнер: FLAC (*.flac)
Тип рипа: tracks
Разрядность: 24/44,1
Формат: PCM
Количество каналов: 2.0
Код: Выделить всё
foobar2000 1.3.9 / Dynamic Range Meter 1.1.1
log date: 2017-12-11 10:00:11
--------------------------------------------------------------------------------
Analyzed: Jesse Boykins III / Bartholomew
--------------------------------------------------------------------------------
DR         Peak         RMS     Duration Track
--------------------------------------------------------------------------------
DR5        0.00 dB    -7.74 dB      4:09 01-Earth Girls
DR5        0.00 dB    -7.45 dB      4:33 02-Everybody Shut Up
DR6        0.00 dB    -7.52 dB      4:36 03-Kumbaya In June
DR8        0.00 dB    -9.01 dB      2:56 04-8 Day Weeks
DR6        0.00 dB    -8.07 dB      3:24 05-Into You (feat. Noname)
DR6        0.00 dB    -8.17 dB      3:37 06-I Need You
DR6        0.00 dB    -8.09 dB      4:43 07-Tomorrow
DR6        0.00 dB    -8.13 dB      4:21 08-Mean Girls (feat. J*DaVeY)
DR6        0.00 dB    -7.79 dB      3:31 09-Indie Girls (feat. Kilo Kish & Little Simz)
DR7        0.00 dB    -8.56 dB      5:22 10-LArain (feat. Melanie Fiona & Trinidad James)
DR5        0.00 dB    -7.45 dB      4:08 11-Vegetables (feat. SYD & Willow)
DR7        0.00 dB    -8.00 dB      3:42 12-Eye Of The Gentle Tiger (feat. Audio Push)
DR6        0.00 dB    -8.45 dB      4:37 13-Solar Sisters (feat. Alex Isley & Bridget Kelly)
DR6        0.00 dB    -8.59 dB      3:43 14-Nobody On Jupiter (feat. Dej Loaf)
DR6        0.00 dB    -7.32 dB      3:43 15-LikeMinded (feat. Luke James)
DR4        0.00 dB    -7.54 dB      3:10 16-Only Way Out
DR7        0.00 dB    -9.71 dB      4:41 17-No Worry
--------------------------------------------------------------------------------
Number of tracks:  17
Official DR value: DR6
Samplerate:        44100 Hz
Channels:          2
Bits per sample:   24
Bitrate:           1583 kbps
Codec:             FLAC
================================================================================
Источник: qobuz.com[/spoiler]
Не забывайте говорить Спасибо. Не уходите с раздачи!   
Торрент: Зарегистрирован [11 дек 2017, 07:12]
Статус:
Проверен
 
.torrent скачан: 0 раз
Хэш: f12cf675cd2e794d06b96fd158441fb7b5fa5739
Размер: 792.36 МБ (830 846 962 байт)
   Стать Автором раздачи
   
Цитата

Вернуться в Поп-музыка (Hi-Res stereo)

Кто сейчас на конференции

Сейчас эту тему просматривают: нет зарегистрированных пользователей и гости: 1