[TR24][OF] SawanoHiroyuki[nZk] (Hiroyuki Sawano) - Discography (6 releases) - 2014-2017 (JPop, Rock, Pop-Rock, Electronic)

 Статистика раздачи 
Размер: 5.48 ГБ   |  Зарегистрирован: 24 дек 2017, 12:50   |   .torrent скачан: 0 раз
Сидеров: 0  [ 0 байт/сек ]     Личеров: 0  [ 0 байт/сек ]  
  
Аватара пользователя
Главный редактор
Главный редактор
 
Раздал: 90.01 ТБ
Скачал: 3.78 ТБ
Ратио: 24.248
Сообщения: 273621
Стаж: 9 лет 1 месяц 12 дней
Откуда: Санкт-Петербург

SawanoHiroyuki[nZk] - Дискография


[Официальный сайт || Википедия]
Формат записи/Источник записи: [TR24][OF] || Наличие водяных знаков: Нет || Год издания/переиздания диска: 2014-2017 || Жанр: JPop, Rock, Pop-Rock, Electronic || Издатель (лейбл): DefSTAR Records (2014-2015) SME Records (2016-2017) SACRA MUSIC (2017-наст.время) || Продолжительность: 03:52:15 || Наличие сканов в содержимом раздачи: Нет
Контейнер: FLAC (*.flac) || Тип рипа: tracks || Разрядность: 24/96 || Формат: PCM || Количество каналов: 2.0
Источник: mora.jp
Альбомы:
Продолжительность: 00:53:49
Треклист:
01. UnChild
02. StarRingChild -English ver.-
03. A LETTER
04. Destiny
05. But still...
06. Just say good bye
07. Next 2 U
08. bL∞dy f8
09. REMIND YOU
10. EGO
11. Because we are tiny in this world
12. RE:I AM -English ver.-
Код: Выделить всё
foobar2000 1.3.17 / Dynamic Range Meter 1.1.1
log date: 2017-12-23 00:38:18
--------------------------------------------------------------------------------
Analyzed: SawanoHiroyuki[nZk]:Aimer / UnChild
--------------------------------------------------------------------------------
DR         Peak         RMS     Duration Track
--------------------------------------------------------------------------------
DR8       -0.30 dB   -11.20 dB      4:55 06-Just say good bye
DR8       -0.30 dB   -11.18 dB      4:05 07-Next 2 U
DR7       -0.30 dB    -9.12 dB      4:48 08-bL∞dy f8
DR7       -0.30 dB   -10.91 dB      4:54 09-REMIND YOU
DR8       -0.30 dB   -10.44 dB      3:56 10-EGO
DR9       -0.30 dB   -10.55 dB      4:25 11-Because we are tiny in this world
DR8       -0.30 dB   -10.53 dB      5:48 12-RE:I AM -English ver.-
DR9       -0.30 dB   -12.30 dB      2:56 01-UnChild
DR7       -0.30 dB    -9.73 dB      5:02 02-StarRingChild -English ver.-
DR7       -0.30 dB    -9.68 dB      4:28 03-A LETTER
DR7       -0.30 dB   -10.53 dB      3:51 04-Destiny
DR8       -0.30 dB    -9.76 dB      4:41 05-But still...
--------------------------------------------------------------------------------
Number of tracks:  12
Official DR value: DR8
Samplerate:        96000 Hz
Channels:          2
Bits per sample:   24
Bitrate:           3437 kbps
Codec:             FLAC
================================================================================
#77Продолжительность: 01:01:02
Треклист:
01. [nZk]o1
02. Pretenders
03. X.U.
04. A/Z
05. scaPEGoat
06. oI
07. Song of ..<AM>
08. Saving Us
09. aLIEz
10. Rise Above
11. Summer Tears
12. &Z
13. s-AVE
14. out01nzk
Код: Выделить всё
foobar2000 1.3.17 / Dynamic Range Meter 1.1.1
log date: 2017-12-23 00:11:58
--------------------------------------------------------------------------------
Analyzed: SawanoHiroyuki[nZk]:Aimer / o1 (1-2)
          SawanoHiroyuki[nZk]:Gemie / o1 (3-4)
          SawanoHiroyuki[nZk]:mica&Gemie / o1 (5)
          SawanoHiroyuki[nZk]:mica / o1 (6)
          SawanoHiroyuki[nZk]:mizuki / o1 (7-10)
          SawanoHiroyuki[nZk]:Yosh / o1 (11-12)
          SawanoHiroyuki[nZk] / o1 (13-14)
--------------------------------------------------------------------------------
DR         Peak         RMS     Duration Track
--------------------------------------------------------------------------------
DR8       -0.30 dB   -11.33 dB      4:20 07-Song of ..<AM>
DR8       -0.30 dB   -10.92 dB      4:35 13-s-AVE
DR8       -0.30 dB   -10.76 dB      4:44 03-X.U.
DR9       -0.30 dB   -12.48 dB      4:43 08-Saving Us
DR8       -0.30 dB   -10.27 dB      3:42 02-Pretenders
DR9       -0.30 dB   -10.80 dB      3:17 11-Summer Tears
DR8       -0.30 dB   -10.34 dB      5:18 04-A/Z
DR9       -0.30 dB   -10.36 dB      4:55 06-oI
DR8       -0.30 dB   -10.09 dB      4:28 09-aLIEz
DR8       -0.30 dB    -9.76 dB      4:41 12-&Z
DR8       -0.30 dB    -9.99 dB      5:08 05-scaPEGoat
DR8       -0.30 dB    -9.05 dB      3:32 10-Rise Above
DR9       -0.30 dB   -13.09 dB      5:31 01-[nZk]o1
DR12      -0.38 dB   -17.80 dB      2:10 14-out01nzk
--------------------------------------------------------------------------------
Number of tracks:  14
Official DR value: DR9
Samplerate:        96000 Hz
Channels:          2
Bits per sample:   24
Bitrate:           2437 kbps
Codec:             FLAC
================================================================================
#77Продолжительность: 01:08:57
Треклист:
01. 1ntr0duct10n
02. Amazing Trees
03. gravityWall
04. e of s
05. Club Ki3ε
06. VV-ALK
07. rabBIThole
08. ninelie <cry-v>
09. sh0ut
10. ViEW
11. mio MARE <2v-alk_v>
12. CRYst-Alise
13. Next 2 U -eUC-
14. HERE I AM <2v-alk_v>
15. Into the Sky
16. pian0s0l0
17. emot1on
Код: Выделить всё
foobar2000 1.3.17 / Dynamic Range Meter 1.1.1
log date: 2017-12-21 22:04:15
--------------------------------------------------------------------------------
Analyzed: SawanoHiroyuki[nZk]:Aimer / 2V-ALK (1)
          SawanoHiroyuki[nZk]:Eliana / 2V-ALK (2)
          SawanoHiroyuki[nZk]:Gemie / 2V-ALK (3-4)
          SawanoHiroyuki[nZk]:mizuki / 2V-ALK (5-6)
          SawanoHiroyuki[nZk]:naNami / 2V-ALK (7)
          SawanoHiroyuki[nZk]:Tielle&Gemie / 2V-ALK (8-9)
          SawanoHiroyuki[nZk]:Tielle / 2V-ALK (10-13)
          SawanoHiroyuki[nZk]:Yosh / 2V-ALK (14-15)
          SawanoHiroyuki[nZk] / 2V-ALK (16-17)
--------------------------------------------------------------------------------
DR         Peak         RMS     Duration Track
--------------------------------------------------------------------------------
DR8       -0.20 dB   -10.95 dB      5:05 08-ninelie <cry-v>
DR7       -0.20 dB   -10.99 dB      4:13 17-emot1on
DR8       -0.20 dB    -9.38 dB      3:28 05-Club Ki3ε
DR8       -0.20 dB    -9.85 dB      4:02 14-HERE I AM (2v-alk_v)
DR7       -0.20 dB   -10.44 dB      4:12 04-e of s
DR8       -0.20 dB   -10.92 dB      3:31 10-ViEW
DR7       -0.20 dB    -9.84 dB      4:04 13-Next 2 U -eUC-
DR7       -0.20 dB    -8.80 dB      3:46 03-gravityWall
DR7       -0.20 dB    -9.57 dB      4:05 09-sh0ut
DR7       -0.20 dB    -9.33 dB      4:46 02-Amazing Trees
DR8       -0.20 dB   -10.49 dB      4:22 06-VV-ALK
DR8       -0.20 dB   -11.06 dB      5:15 12-CRYst-Alise
DR7       -0.20 dB    -8.78 dB      3:51 15-Into the Sky
DR8       -0.20 dB   -10.88 dB      4:00 07-rabBIThole
DR8       -0.20 dB   -10.50 dB      4:22 11-mio MARE (2v-alk_v)
DR8       -0.20 dB   -10.86 dB      1:59 01-1ntr0duct10n
DR14      -3.93 dB   -22.49 dB      3:55 16-pian0s0l0
--------------------------------------------------------------------------------
Number of tracks:  17
Official DR value: DR8
Samplerate:        96000 Hz
Channels:          2
Bits per sample:   24
Bitrate:           2279 kbps
Codec:             FLAC
================================================================================
Синглы:
#77Продолжительность: 00:24:51
Треклист:
01. Into the Sky
02. Next 2 U -eUC-
03. bL∞dy f8 -eUC-
04. Pretenders -eO1-
05. Into the Sky (TV Size)
06. Next 2 U -eUC- (TV Size)
07. bL∞dy f8 -eUc- (TV Size)
08. Into the Sky (Instrumental)
Код: Выделить всё
foobar2000 1.3.17 / Dynamic Range Meter 1.1.1
log date: 2017-12-23 01:15:34
--------------------------------------------------------------------------------
Analyzed: SawanoHiroyuki[nZk]:Aimer / Into the Sky EP (1-2)
          SawanoHiroyuki[nZk]:mica / Into the Sky EP (3)
          SawanoHiroyuki[nZk]:naNami / Into the Sky EP (4-5)
          SawanoHiroyuki[nZk]:Tielle / Into the Sky EP (6-8)
--------------------------------------------------------------------------------
DR         Peak         RMS     Duration Track
--------------------------------------------------------------------------------
DR7       -0.30 dB    -8.56 dB      4:48 03-bL∞dy f8 -eUC-
DR7       -0.30 dB    -8.53 dB      1:31 07-bL∞dy f8 -eUC- (TV size)
DR7       -0.30 dB    -9.21 dB      3:43 04-Pretenders -eO1-
DR7       -0.30 dB   -10.20 dB      4:04 02-Next 2 U -eUC-
DR7       -0.30 dB   -10.28 dB      1:33 06-Next 2 U -eUC- (TV size)
DR7       -0.30 dB    -9.09 dB      3:50 01-Into the Sky
DR7       -0.30 dB    -9.27 dB      1:32 05-Into the Sky (TV size)
DR9       -0.30 dB   -10.62 dB      3:49 08-Into the Sky (instrumental)
--------------------------------------------------------------------------------
Number of tracks:  8
Official DR value: DR7
Samplerate:        96000 Hz
Channels:          2
Bits per sample:   24
Bitrate:           3448 kbps
Codec:             FLAC
================================================================================
#77Продолжительность: 00:08:03
Треклист:
01. CRYst-Alise
02. Rise Above (game edit)
Код: Выделить всё
foobar2000 1.3.17 / Dynamic Range Meter 1.1.1
log date: 2017-12-24 16:32:40
--------------------------------------------------------------------------------
Statistics for: 01-CRYst-Alise
Number of samples: 30288638
Duration: 5:16
--------------------------------------------------------------------------------
                 Left              Right
Peak Value:     -0.30 dB   ---     -0.30 dB
Avg RMS:       -11.29 dB   ---    -11.10 dB
DR channel:      8.35 dB   ---      8.20 dB
--------------------------------------------------------------------------------
Official DR Value: DR8
Samplerate:        96000 Hz
Channels:          2
Bits per sample:   24
Bitrate:           3229 kbps
Codec:             FLAC
================================================================================
Statistics for: 02-Rise Above (game edit)
Number of samples: 16080832
Duration: 2:48
--------------------------------------------------------------------------------
                 Left              Right
Peak Value:     -0.30 dB   ---     -0.30 dB
Avg RMS:       -10.23 dB   ---    -10.28 dB
DR channel:      9.17 dB   ---      9.19 dB
--------------------------------------------------------------------------------
Official DR Value: DR9
Samplerate:        96000 Hz
Channels:          2
Bits per sample:   24
Bitrate:           3574 kbps
Codec:             FLAC
================================================================================
#77Продолжительность: 00:15:34
Треклист:
01. e of s
02. ninelie <cry-v>
03. e of s (game edit)
04. ninelie <cry-v> (instrumental)
Код: Выделить всё
foobar2000 1.3.17 / Dynamic Range Meter 1.1.1
log date: 2017-12-24 16:39:53
--------------------------------------------------------------------------------
Analyzed: SawanoHiroyuki[nZk]:Aimer / e of s EP (1-2)
          SawanoHiroyuki[nZk]:mizuki / e of s EP (3-4)
--------------------------------------------------------------------------------
DR         Peak         RMS     Duration Track
--------------------------------------------------------------------------------
DR7       -0.20 dB   -10.12 dB      5:07 02-ninelie <cry-v>
DR9       -0.20 dB   -11.14 dB      5:04 04-ninelie <cry-v> (instrumental)
DR7       -0.20 dB    -9.16 dB      3:50 01-e of s
DR6       -0.20 dB    -9.10 dB      1:33 03-e of s (game edit)
--------------------------------------------------------------------------------
Number of tracks:  4
Official DR value: DR7
Samplerate:        96000 Hz
Channels:          2
Bits per sample:   24
Bitrate:           4616 kbps
Codec:             FLAC
================================================================================
Не забывайте говорить Спасибо. Не уходите с раздачи!   
Торрент: Зарегистрирован [24 дек 2017, 12:50]
Статус:
Проверен
 
.torrent скачан: 0 раз
Хэш: 4d76d0aa7a4c34a106da39b7395f80f20e7c4f06
Размер: 5.48 ГБ (5 879 476 734 байт)
   Стать Автором раздачи
   
Цитата
  • Похожие торренты
    Ответы
    Просмотры
    Последнее сообщение

Вернуться в Поп-музыка (Hi-Res stereo)

Кто сейчас на конференции

Сейчас эту тему просматривают: нет зарегистрированных пользователей и гости: 1