[TR24][OF] Destination Rachmaninov - Departure: Piano Concertos 2 & 4 /Рахманинов - Концерт для фортепиано с оркестром № 2 и №4 (Daniil Trifonov/Даниил Трифонов, Philadelphia Orchestra, Yannick Nezet-Seguin) - 2018 (Classical, Piano)

 Статистика раздачи 
Размер: 1.14 ГБ   |  Зарегистрирован: 12 окт 2018, 15:05   |   .torrent скачан: 0 раз
Сидеров: 0  [ 0 байт/сек ]     Личеров: 0  [ 0 байт/сек ]  
  
Аватара пользователя
Главный редактор
Главный редактор
 
Раздал: 90.01 ТБ
Скачал: 3.78 ТБ
Ратио: 24.248
Сообщения: 291047
Стаж: 9 лет 9 месяцев 12 дней
Откуда: Санкт-Петербург

Destination Rachmaninov · Departure: Piano Concertos 2 & 4


Формат записи/Источник записи: [TR24][OF]
Наличие водяных знаков: Нет
Год издания: 2018
Жанр: Classical, Piano
Издатель (лейбл): Deutsche Grammophon
Продолжительность: 01:01:50
Наличие сканов в содержимом раздачи: Буклет PDF
Контейнер: FLAC (*.flac)
Тип рипа: tracks
Разрядность: 24/96
Формат: PCM
Количество каналов: 2.0
Источник (релизер): prestomusic.com
Трейлер: youtube
Треклист:
SERGEI RACHMANINOV (1873–1943)
Piano Concerto No. 2 in C minor, Op. 18
1. I. Moderato
2. II. Adagio sostenuto
3. III. Allegro scherzando
Suite from J. S. Bach’s Partita for Violin in E major BWV 1006
Transcription for piano
4. I. Preludio
5. II. Gavotte
6. III. Gigue
Piano Concerto No. 4 in G minor, Op. 40
7. I. Allegro vivace (Alla breve)
8. II. Largo
9. III. Allegro vivace
Daniil Trifonov, piano
The Philadelphia Orchestra · Yannick Nézet-Séguin
Код: Выделить всё
foobar2000 1.4 / Dynamic Range Meter 1.1.1
log date: 2018-10-12 18:12:54
--------------------------------------------------------------------------------
Analyzed: Daniil Trifonov / Destination Rachmaninov: Departure
--------------------------------------------------------------------------------
DR         Peak         RMS     Duration Track
--------------------------------------------------------------------------------
DR14      -0.67 dB   -20.94 dB     11:14 01-Piano Concerto No. 2 in C minor, Op. 18 - 1. Moderato
DR15      -1.88 dB   -25.88 dB     11:47 02-Piano Concerto No. 2 in C minor, Op. 18 - 2. Adagio sostenuto
DR14      -0.88 dB   -21.09 dB     12:16 03-Piano Concerto No. 2 in C minor, Op. 18 - 3. Allegro scherzando
DR12      -5.96 dB   -22.72 dB      3:48 04-Partita for Violin Solo No. 3 in E Major, BWV 1006 - Arr. for Piano by Rachmaninov - 1. Preludio
DR13      -5.88 dB   -24.20 dB      2:45 05-Partita for Violin Solo No. 3 in E Major, BWV 1006 - Arr. for Piano by Rachmaninov - 3. Gavotte
DR13      -7.31 dB   -24.55 dB      1:42 06-Partita for Violin Solo No. 3 in E Major, BWV 1006 - Arr. for Piano by Rachmaninov - 6. Gigue
DR14      -2.80 dB   -22.17 dB     10:06 07-Piano Concerto No. 4 in G minor, Op. 40 - 1. Allegro vivace (Alla breve)
DR14      -2.73 dB   -25.35 dB      7:05 08-Piano Concerto No. 4 in G minor, Op. 40 - 2. Largo
DR14      -0.60 dB   -21.02 dB      9:24 09-Piano Concerto No. 4 in G minor, Op. 40 - 3. Allegro vivace
--------------------------------------------------------------------------------
Number of tracks:  9
Official DR value: DR14
Samplerate:        96000 Hz
Channels:          2
Bits per sample:   24
Bitrate:           2456 kbps
Codec:             FLAC
================================================================================
Grammy winner Daniil Trifonov presents a cycle of Sergei Rachmaninov’s highly virtuosic Piano Concertos.
Recorded with Yannick Nézet-Séguin and the Philadelphia Orchestra, the orchestra most closely associated with the composer with which Rachmaninov himself famously recorded the set of concerti over 80 years ago.
The two-part “Journey with Rachmaninov” begins with DESTINATION RACHMANINOV - DEPARTURE, including the great Piano Concerto No. 2, probably Rachmaninov’s best-loved work, paired with the equally beautiful and rarely performed 4th Concerto. These voluminous works are contrasted with a taste of Rachmaninov the master miniaturist, with solo piano transcriptions of Bach's Partita in E Major.
Не забывайте говорить Спасибо. Не уходите с раздачи!   
Торрент: Зарегистрирован [12 окт 2018, 15:05]
Статус:
Проверен
 
.torrent скачан: 0 раз
Хэш: df058e4f08bf7e2ee893312a3a920c6d1f374870
Размер: 1.14 ГБ (1 226 256 455 байт)
   Стать Автором раздачи
   
Цитата
  • Похожие торренты
    Ответы
    Просмотры
    Последнее сообщение

Вернуться в Классика и классика в современной обработке (Hi-Res stereo)

Кто сейчас на конференции

Сейчас эту тему просматривают: нет зарегистрированных пользователей и гости: 1