Канцелярская крыса [02х01-20 из 20] (2019) SATRip

 Статистика раздачи 
Размер: 11.67 ГБ   |  Зарегистрирован: 25 окт 2019, 19:33   |   .torrent скачан: 4009 раз
Сидеров: 357  [ 0 байт/сек ]     Личеров: 319  [ 0 байт/сек ]  
  
Аватара пользователя
 
Раздал: 50 ГБ
Скачал: 0 байт
Ратио: Seed.
Сообщения: 28
Стаж: 1 месяц 2 дня

Оригинальное название: Канцелярская крыса
Год выпуска: 2019
Жанр: Детектив, криминал
Выпущено: Россия, «Триикс медиа»
Режиссер: Максим Бриус
В ролях: Константин Стрельников, Алексей Нилов, Кирилл Полухин, Павел Гайдученко, Евгений Бакалов, Евгений Зарубин, Богдан Псел, Александр Строев, Юлия Бедарева, Руслан Китайгородский, Александра Ильвес, Сергей Шоколов, Владимир Лабецкий, Мирослав Опарин, Элис Дарс, Игорь Павлов (I), Светлана Терентьева, Иван Киренков, Елена Купрашевич, Евгений Новосёлов (II)

О сериале: С того момента, как Вершинин поспособствовал аресту Медушевского, прошло несколько месяцев. Вершинин почти восстановился после полученного ранения, и ему пора возвращаться к работе на должность начальника полиции в Портовом. Но едва он успевает выйти из больницы, как в городе происходит покушение на Юру Никитина и Глеба Борисова. После смерти Никитина-старшего его сын решил, что он в состоянии продолжить дело отца, и это делает Юру помехой многим силам, претендующим на владение портом. Чтобы начать расследование, Вершинину нужно собрать новую команду из надёжных людей, ведь на одного Губина, пусть и ступившего на путь исправления, положиться до конца он не может. Первым напарником Вершинина становится младший лейтенант Стас Комаров, 26-летний выпускник академии МВД, а вторым – упрямая идеалистка Мария Давыдова.



Качество: SATRip
Видео: XviD build 73, 720x400 (16:9), 25.000 fps, ~ 1450 Kbps (~ 0.199 bit/pixel)
Аудио: 48.0 kHz, AC3, 2/0 ch, 192 kbps
Продолжительность: 4 х ~ 00:48:00
Перевод: Не требуется [Русский]
Cубтитры: нет
Релиз от:

General
Complete name : D:RazdachiKanceljarskaja.Krysa.s02.2019.WEBRip.GeneralFilmKanceljarskaja.Krysa.s02.e01.avi
Format : AVI
Format/Info : Audio Video Interleave
File size : 557 MiB
Duration : 47 min 40 s
Overall bit rate : 1 633 kb/s
Writing application : VirtualDubMod 1.5.10.3 | http://www.virtualdub-fr.org || (build 2550/release)
Writing library : VirtualDubMod build 2550/release

Video
ID : 0
Format : MPEG-4 Visual
Format profile : Advanced Simple@L5
Format settings : BVOP1 / Custom Matrix
Format settings, BVOP : 1
Format settings, QPel : No
Format settings, GMC : No warppoints
Format settings, Matrix : Custom
Codec ID : XVID
Codec ID/Hint : XviD
Duration : 47 min 40 s
Bit rate : 1 432 kb/s
Width : 720 pixels
Height : 400 pixels
Display aspect ratio : 16:9
Frame rate : 25.000 FPS
Color space : YUV
Chroma subsampling : 4:2:0
Bit depth : 8 bits
Scan type : Progressive
Compression mode : Lossy
Bits/(Pixel*Frame) : 0.199
Stream size : 488 MiB (88%)
Writing library : XviD 73

Audio
ID : 1
Format : AC-3
Format/Info : Audio Coding 3
Commercial name : Dolby Digital
Codec ID : 2000
Duration : 47 min 40 s
Bit rate mode : Constant
Bit rate : 192 kb/s
Channel(s) : 2 channels
Channel layout : L R
Sampling rate : 48.0 kHz
Frame rate : 31.250 FPS (1536 SPF)
Bit depth : 16 bits
Compression mode : Lossy
Stream size : 65.5 MiB (12%)
Alignment : Split accross interleaves
Interleave, duration : 40 ms (1.00 video frame)
Interleave, preload duratio : 500 ms
Service kind : Complete Main
Не забывайте говорить Спасибо. Не уходите с раздачи!   
Торрент: Зарегистрирован [25 окт 2019, 19:33]
Статус:
Проверен
 
.torrent скачан: 4009 раз
Хэш: 99cbab05cb575764bce5bcb4c779b8eb5d41fe36
Размер: 11.67 ГБ (12 533 054 685 байт)
   Стать Автором раздачи
   
Последний раз редактировалось NTL 25 окт 2019, 19:33, всего редактировалось 7 раз(а).
Цитата
Аватара пользователя
Автор темы
Раздал: 50 ГБ
Скачал: 0 байт
Ратио: Seed.
Сообщения: 28
Стаж: 1 месяц 2 дня
СообщениеДобавлено: 17 окт 2019, 11:40
добавлены 5, 6, серия
Цитата
Аватара пользователя
Автор темы
Раздал: 50 ГБ
Скачал: 0 байт
Ратио: Seed.
Сообщения: 28
Стаж: 1 месяц 2 дня
СообщениеДобавлено: 18 окт 2019, 09:59
добавлены 7, 8, серия
Цитата
Аватара пользователя
Автор темы
Раздал: 50 ГБ
Скачал: 0 байт
Ратио: Seed.
Сообщения: 28
Стаж: 1 месяц 2 дня
СообщениеДобавлено: 19 окт 2019, 13:27
добавлены 9, 10, серия
Цитата
Аватара пользователя
Автор темы
Раздал: 50 ГБ
Скачал: 0 байт
Ратио: Seed.
Сообщения: 28
Стаж: 1 месяц 2 дня
СообщениеДобавлено: 23 окт 2019, 12:03
добавлены 11, 12, 13, 14 серия
Цитата
Аватара пользователя
Автор темы
Раздал: 50 ГБ
Скачал: 0 байт
Ратио: Seed.
Сообщения: 28
Стаж: 1 месяц 2 дня
СообщениеДобавлено: 24 окт 2019, 17:54
завтра выйдут последние серии
Цитата

  • Похожие торренты
    Ответы
    Просмотры
    Последнее сообщение

Вернуться в Отечественные сериалы

Кто сейчас на конференции

Сейчас эту тему просматривают: нет зарегистрированных пользователей и гости: 1