Глубокий океан. Свет на дне / Deep Ocean: Lights in the Abyss (2016) IPTVRip [H.264]

 Статистика раздачи 
Размер: 553.53 МБ   |  Зарегистрирован: 09 окт 2019, 15:46   |   .torrent скачан: 3 раз
Сидеров: 29  [ 0 байт/сек ]     Личеров: 2  [ 0 байт/сек ]  
  
Аватара пользователя
Я на сайте
 
Раздал: 6.4 ТБ
Скачал: 483.58 ГБ
Ратио: 13.557
Сообщения: 243114
Стаж: 2 года 6 месяцев 22 дня

Глубокий океан. Свет на дне / Deep Ocean: Lights in the Abyss (2016) IPTVRip [H.264]

Производство: США, NHK
Жанр: Документальный

Режиссер: Hiroyaki Katayama, Manabu Hirose
Ведущий: Дэвид Аттенборо

Описание:
Монтерей, залив Тихого океана, расположенный вдоль центрального побережья Калифорнии, можно назвать основным фронтом глубоководных биологических исследований. Авторы рассказывают о загадочном мире удивительных форм жизни со светящимися телами, а также позволяют увидеть их взаимоотношения с хищниками и их способы выживания в суровой глубоководной среде. "Сумеречная зона" - так называют гигантское пространство размером с Гранд-Каньон, находящееся на глубине между 200 и 1000 метров в водах залива Монтерей.

https://www.imdb.com/title/tt6959298/?ref_=plg_rt_1

Релиз от: starflow
Продолжительность: 00:51:48
Качество видео: IPTVRip
Перевод: Двуголосый профессиональный

Видео: AVC/H.264, 720x408, ~1300 Kbps
Аудио: AC3, 2 ch, 192 Kbps
Код: Выделить всё
General
Unique ID                   : 186862188330036554001239726200886667352 (0x8C9459309A0EDB33816167DDC8D82858)
Complete name               : D:\Glubokiy_okean._Svet_na_dne._.mkv
Format                      : Matroska
Format version              : Version 2
File size                   : 554 MiB
Duration                    : 51mn 48s
Overall bit rate            : 1 494 Kbps
Encoded date                : UTC 2019-10-09 11:57:44
Writing application         : mkvmerge v7.8.0 ('River Man') 32bit built on Apr  3 2015 12:11:22
Writing library             : libebml v1.3.1 + libmatroska v1.4.2

Video
ID                          : 1
Format                      : AVC
Format/Info                 : Advanced Video Codec
Format profile              : [url=http://nnmclub.to/mailto:High@L4.1]High@L4.1[/url]
Format settings, CABAC      : Yes
Format settings, ReFrames   : 9 frames
Codec ID                    : V_MPEG4/ISO/AVC
Duration                    : 51mn 48s
Bit rate                    : 1 300 Kbps
Width                       : 720 pixels
Height                      : 408 pixels
Display aspect ratio        : 16:9
Frame rate mode             : Constant
Frame rate                  : 25.000 fps
Color space                 : YUV
Chroma subsampling          : 4:2:0
Bit depth                   : 8 bits
Scan type                   : Progressive
Bits/(Pixel*Frame)          : 0.177
Stream size                 : 471 MiB (85%)
Writing library             : x264 core 146 r2538 121396c
Encoding settings           : cabac=1 / ref=9 / deblock=1:-1:-1 / analyse=0x3:0x113 / me=umh / subme=9 / psy=1 / psy_rd=1.00:0.20 / mixed_ref=1 / me_range=30 / chroma_me=1 / trellis=2 / 8x8dct=1 / cqm=0 / deadzone=21,11 / fast_pskip=0 / chroma_qp_offset=-3 / threads=6 / lookahead_threads=1 / sliced_threads=0 / nr=0 / decimate=0 / interlaced=0 / bluray_compat=0 / constrained_intra=0 / bframes=10 / b_pyramid=2 / b_adapt=2 / b_bias=0 / direct=3 / weightb=1 / open_gop=0 / weightp=2 / keyint=250 / keyint_min=25 / scenecut=40 / intra_refresh=0 / rc_lookahead=50 / rc=2pass / mbtree=1 / bitrate=1300 / ratetol=1.0 / qcomp=0.60 / qpmin=0 / qpmax=69 / qpstep=4 / cplxblur=20.0 / qblur=0.5 / vbv_maxrate=14000 / vbv_bufsize=14000 / nal_hrd=none / filler=0 / ip_ratio=1.40 / aq=1:1.00
Default                     : Yes
Forced                      : No

Audio
ID                          : 2
Format                      : AC-3
Format/Info                 : Audio Coding 3
Mode extension              : CM (complete main)
Format settings, Endianness : Big
Codec ID                    : A_AC3
Duration                    : 51mn 48s
Bit rate mode               : Constant
Bit rate                    : 192 Kbps
Channel(s)                  : 2 channels
Channel positions           : Front: L R
Sampling rate               : 48.0 KHz
Bit depth                   : 16 bits
Compression mode            : Lossy
Stream size                 : 71.2 MiB (13%)
Default                     : Yes
Forced                      : No

Скриншоты:
Дополнительные скриншоты:
Не забывайте говорить Спасибо. Не уходите с раздачи!   
Торрент: Зарегистрирован [09 окт 2019, 15:46]
Статус:
Проверен
 
.torrent скачан: 3 раз
Хэш: 136609a963808839f2d42714b8ecc94489a637bd
Размер: 553.53 МБ (580 418 599 байт)
   Стать Автором раздачи
   
Цитата
  • Похожие торренты
    Ответы
    Просмотры
    Последнее сообщение

Вернуться в Флора и фауна

Кто сейчас на конференции

Сейчас эту тему просматривают: нет зарегистрированных пользователей и гости: 1