Винни Пух: Весенние денёчки с малышом Ру / Winnie the Pooh: Springtime with Roo (2004) BDRip [H.264/1080p-LQ]

 Статистика раздачи 
Размер: 3.25 ГБ   |  Зарегистрирован: 09 окт 2019, 17:02   |   .torrent скачан: 0 раз
Сидеров: 1  [ 0 байт/сек ]     Личеров: 0  [ 0 байт/сек ]  
  
Аватара пользователя
Я на сайте
 
Раздал: 6.42 ТБ
Скачал: 483.69 ГБ
Ратио: 13.600
Сообщения: 243543
Стаж: 2 года 6 месяцев 25 дней

Винни Пух: Весенние денёчки с малышом Ру / Winnie the Pooh: Springtime with Roo (2004) BDRip [H.264/1080p-LQ]

Производство: США, Walt Disney
Жанр: Сказка, Детский, Рисованная анимация

Режиссер: Сауль Эндрю Блинкофф, Эллиот М. Бур
Персонажи: Виктор Костецкий (Tigger), Владимир Баранов (Winnie The Pooh), Георгий Корольчук (Rabbit), Елизавета Захарьева (Roo), Станислав Концевич (рассказчик), Мария Соснякова (Kanga), Андрей Матвеев (Piglet), Дмитрий Лагачев (Eeyore)

Описание:
Вот и наступил это замечательный весенний денек! Пчелки жужжат, цветочки распускаются, а Ру, Винни и Тигруля уже готовы к веселью и играм. Но Кролик не хочет никого выпускать на улицу, пока не будет закончена большая сезонная уборка!
Сможет ли что-то или кто-то повлиять на строгого Кролика? С помощью мудрости и доброты Ру Кролик вскоре понимает, что на свете есть необычные дни и к ним нужно относиться особенно.

https://www.imdb.com/title/tt0384696/?ref_=plg_rt_1
Возраст: 6+ (зрителям, достигшим 6 лет)
Рейтинг MPAA: G (нет возрастных ограничений)
Продолжительность: 01:02:39
Качество видео: BDRip
Перевод: Дублированный
Субтитры: русские (форс., полные), английские (полные)

Видео: AVC/H.264, 1920х1080, ~6 Mbps
Аудио #1: AC3, 2 ch, 320 Kbps - Русский
Аудио #2: DTS, 6 ch, 768 Kbps - Английский
Код: Выделить всё
x264 info: frame I:975   Avg QP:15.00  size:308824
x264 info: frame P:30259 Avg QP:17.33  size: 61438
x264 info: frame B:63038 Avg QP:18.31  size: 12516

Unique ID                                : 174362888872859962114709147821363447896 (0x832D1225A6AFCBF2895052224C644858)
Complete name                            : D:\Temp\NNM\Springtime with Roo.2004.1080p.mkv
Format                                   : Matroska
Format version                           : Version 4 / Version 2
File size                                : 3.25 GiB
Duration                                 : 1h 5mn
Overall bit rate                         : 7 091 Kbps
Movie name                               : Winnie the Pooh: Springtime with Roo (2004)
Encoded date                             : UTC 2019-10-09 13:52:58
Writing application                      : mkvmerge v9.8.0 ('Kuglblids') 64bit
Writing library                          : libebml v1.3.4 + libmatroska v1.4.5

Video
ID                                       : 1
Format                                   : AVC
Format/Info                              : Advanced Video Codec
Format profile                           : High@L4.1
Format settings, CABAC                   : Yes
Format settings, ReFrames                : 4 frames
Codec ID                                 : V_MPEG4/ISO/AVC
Duration                                 : 1h 5mn
Bit rate                                 : 6 000 Kbps
Width                                    : 1 920 pixels
Height                                   : 1 080 pixels
Display aspect ratio                     : 16:9
Frame rate mode                          : Constant
Frame rate                               : 23.976 fps
Color space                              : YUV
Chroma subsampling                       : 4:2:0
Bit depth                                : 8 bits
Scan type                                : Progressive
Bits/(Pixel*Frame)                       : 0.121
Stream size                              : 2.68 GiB (83%)
Writing library                          : x264 core 157 r2935 545de2f
Encoding settings                        : cabac=1 / ref=4 / deblock=1:-3:-3 / analyse=0x3:0x113 / me=umh / subme=9 / psy=1 / psy_rd=1.05:0.10 / mixed_ref=1 / me_range=24 / chroma_me=1 / trellis=2 / 8x8dct=1 / cqm=0 / deadzone=21,11 / fast_pskip=0 / chroma_qp_offset=-3 / threads=5 / lookahead_threads=1 / sliced_threads=0 / nr=0 / decimate=0 / interlaced=0 / bluray_compat=0 / constrained_intra=0 / bframes=6 / b_pyramid=2 / b_adapt=2 / b_bias=0 / direct=1 / weightb=1 / open_gop=0 / weightp=2 / keyint=240 / keyint_min=24 / scenecut=40 / intra_refresh=0 / rc=2pass / mbtree=0 / bitrate=6000 / ratetol=1.0 / qcomp=0.70 / qpmin=3 / qpmax=69 / qpstep=4 / cplxblur=20.0 / qblur=0.5 / ip_ratio=1.40 / pb_ratio=1.30 / aq=2:1.00
Default                                  : Yes
Forced                                   : No

Audio #1
ID                                       : 2
Format                                   : AC-3
Format/Info                              : Audio Coding 3
Format profile                           : Dolby Digital
Mode extension                           : CM (complete main)
Format settings, Endianness              : Big
Codec ID                                 : A_AC3
Duration                                 : 1h 5mn
Bit rate mode                            : Constant
Bit rate                                 : 320 Kbps
Channel(s)                               : 2 channels
Channel positions                        : Front: L R
Sampling rate                            : 48.0 KHz
Bit depth                                : 16 bits
Compression mode                         : Lossy
Stream size                              : 150 MiB (5%)
Language                                 : Russian
Default                                  : No
Forced                                   : No

Audio #2
ID                                       : 3
Format                                   : DTS
Format/Info                              : Digital Theater Systems
Mode                                     : 16
Format settings, Endianness              : Big
Codec ID                                 : A_DTS
Duration                                 : 1h 5mn
Bit rate mode                            : Constant
Bit rate                                 : 768 Kbps
Channel(s)                               : 6 channels
Channel positions                        : Front: L C R, Side: L R, LFE
Sampling rate                            : 48.0 KHz
Bit depth                                : 16 bits
Compression mode                         : Lossy
Stream size                              : 360 MiB (11%)
Language                                 : English
Default                                  : Yes
Forced                                   : No

Text #1
ID                                       : 4
Format                                   : UTF-8
Codec ID                                 : S_TEXT/UTF8
Codec ID/Info                            : UTF-8 Plain Text
Title                                    : Forced
Language                                 : Russian
Default                                  : Yes
Forced                                   : No

Text #2
ID                                       : 5
Format                                   : UTF-8
Codec ID                                 : S_TEXT/UTF8
Codec ID/Info                            : UTF-8 Plain Text
Title                                    : Full
Language                                 : Russian
Default                                  : No
Forced                                   : No

Text #3
ID                                       : 6
Format                                   : UTF-8
Codec ID                                 : S_TEXT/UTF8
Codec ID/Info                            : UTF-8 Plain Text
Title                                    : Full
Language                                 : English
Default                                  : No
Forced                                   : No

Menu
00:00:00.000                             : en:00:00:00.000
00:06:32.475                             : en:00:06:32.475
00:12:53.439                             : en:00:12:53.439
00:18:56.469                             : en:00:18:56.469
00:25:02.501                             : en:00:25:02.501
00:28:32.336                             : en:00:28:32.336
00:32:43.670                             : en:00:32:43.670
00:41:10.635                             : en:00:41:10.635
00:43:43.246                             : en:00:43:43.246
00:47:21.338                             : en:00:47:21.338
00:52:25.809                             : en:00:52:25.809
00:56:19.793                             : en:00:56:19.793

Скриншоты:



Время раздачи: с 11:00 до 01:00 (до появления первых 3-5 скачавших)
Не забывайте говорить Спасибо. Не уходите с раздачи!   
Торрент: Зарегистрирован [09 окт 2019, 17:02]
Статус:
Проверен
 
.torrent скачан: 0 раз
Хэш: c9ecbd4c966a6266c95c44e2b487dd1a708d3e7f
Размер: 3.25 ГБ (3 485 351 401 байт)
   Стать Автором раздачи
   
Цитата
  • Похожие торренты
    Ответы
    Просмотры
    Последнее сообщение

Вернуться в Полнометражные

Кто сейчас на конференции

Сейчас эту тему просматривают: нет зарегистрированных пользователей и гости: 1