Солнцестояние / Midsommar (2019) BDRip [H.264/720p]

 Статистика раздачи 
Размер: 4.51 ГБ   |  Зарегистрирован: 09 окт 2019, 17:39   |   .torrent скачан: 0 раз
Сидеров: 4  [ 0 байт/сек ]     Личеров: 0  [ 0 байт/сек ]  
  
Аватара пользователя
Я на сайте
 
Раздал: 6.42 ТБ
Скачал: 483.69 ГБ
Ратио: 13.600
Сообщения: 243487
Стаж: 2 года 6 месяцев 25 дней
СообщениеДобавлено: 09 окт 2019, 17:39


Солнцестояние / Midsommar (2019) BDRip [H.264/720p]

Производство: США, Швеция, Венгрия / Proton Cinema, B-Reel Films, Square Peg
Жанр: ужасы, триллер, драма

Режиссер: Ари Астер
Продюсер: Патрик Андерссон, Ларс Кнудсен, Тайлер Кампеллоне
Актеры: Флоренс Пью, Джек Рейнор, Вильхельм Бломгрен, Уильям Джексон, Харпер Уилл, Поултер Эллора

Описание:
День летнего солнцестояния — древний праздник, который во всех культурах окутан мистическим ореолом. В отрезанном от цивилизованного мира шведском поселении раз в 90 лет в этот день проводится уникальный обряд. Именно туда отправляется группа молодых американских антропологов. Однако вскоре после прибытия там начинает происходить нечто необъяснимое, и под светом солнца исследователям открывается настоящая тьма.

https://www.imdb.com/title/tt8772262/?ref_=plg_rt_1
Возраст: 18+ (зрителям, достигшим 18 лет. запрещено для детей)
Рейтинг MPAA: R (лицам до 17 лет обязательно присутствие взрослого)

Продолжительность: 02:27:06
Качество видео: BDRip
Перевод: Профессиональный (дублированный) (iTunes)
Субтитры: хардсаб. Английский

Видео: AVC/H.264, 1280х640, ~3915 kbps, 23.976 fps
Аудио: AC3, 6 ch, 384 Kbps
Код: Выделить всё
Уникальный идентификатор                 : 213502990087925806912489565496371275180 (0xA09F2E20735177078BA93F59F67F65AC)
Полное имя                               : Midsommar.2019_720p_BDRip_[scarabey.org].mkv
Формат                                   : Matroska
Версия формата                           : Version 4
Размер файла                             : 4,51 Гбайт
Продолжительность                        : 2 ч. 27 м.
Общий поток                              : 4386 Кбит/сек
Дата кодирования                         : UTC 2019-10-07 15:42:21
Программа кодирования                    : mkvmerge v6.1.0 ('Old Devil') built on Mar  4 2013 09:10:42
Библиотека кодирования                   : libebml v1.3.0 + libmatroska v1.4.0

Видео
Идентификатор                            : 1
Формат                                   : AVC
Формат/Информация                        : Advanced Video Codec
Профиль формата                          : [url=http://nnmclub.to/mailto:High@L4.1]High@L4.1[/url]
Настройки формата                        : CABAC / 10 Ref Frames
Параметр CABAC формата                   : Да
Параметр RefFrames формата               : 10 кадров
Идентификатор кодека                     : V_MPEG4/ISO/AVC
Продолжительность                        : 2 ч. 27 м.
Битрейт                                  : 3915 Кбит/сек
Ширина                                   : 1280 пикселей
Высота                                   : 640 пикселей
Соотношение сторон                       : 2,000
Режим частоты кадров                     : Постоянный
Частота кадров                           : 23,976 (24000/1001) кадра/сек
Цветовое пространство                    : YUV
Субдискретизация насыщенности            : 4:2:0
Битовая глубина                          : 8 бит
Тип развёртки                            : Прогрессивная
Бит/(Пиксели*Кадры)                      : 0.199
Размер потока                            : 4,02 Гбайт (89%)
Библиотека кодирования                   : x264 core 142 r2431+42 c69a006 tMod [8-bit@4:2:0 X86_64]
Настройки программы                      : cabac=1 / ref=10 / deblock=1:-3:-3 / analyse=0x3:0x113 / me=umh / subme=10 / psy=1 / fade_compensate=0.00 / psy_rd=1.00:0.05 / mixed_ref=1 / me_range=32 / chroma_me=1 / trellis=2 / 8x8dct=1 / cqm=0 / deadzone=21,11 / fast_pskip=0 / chroma_qp_offset=-2 / threads=48 / lookahead_threads=5 / sliced_threads=0 / nr=0 / decimate=1 / interlaced=0 / bluray_compat=0 / constrained_intra=0 / fgo=0 / bframes=8 / b_pyramid=2 / b_adapt=2 / b_bias=0 / direct=3 / weightb=1 / open_gop=0 / weightp=2 / keyint=250 / keyint_min=23 / scenecut=40 / intra_refresh=0 / rc=crf / mbtree=0 / crf=17.0000 / qcomp=0.60 / qpmin=0:0:0 / qpmax=69:69:69 / qpstep=4 / ip_ratio=1.40 / pb_ratio=1.30 / aq=3:0.80 / aq-sensitivity=10.00 / aq-factor=1.00:1.00:1.00 / aq2=0 / aq3=0
Default                                  : Да
Forced                                   : Нет
Цветовой диапазон                        : Limited
Коэффициенты матрицы                     : BT.709

Аудио
Идентификатор                            : 2
Формат                                   : AC-3
Формат/Информация                        : Audio Coding 3
Коммерческое название                    : Dolby Digital
Идентификатор кодека                     : A_AC3
Продолжительность                        : 2 ч. 27 м.
Вид битрейта                             : Постоянный
Битрейт                                  : 384 Кбит/сек
Каналы                                   : 6 каналов
ChannelLayout                            : L R C LFE Ls Rs
Частота                                  : 48,0 КГц
Частота кадров                           : 31,250 кадров/сек (1536 SPF)
Метод сжатия                             : С потерями
Размер потока                            : 404 Мбайт (9%)
Заголовок                                : Дубляж - iTunes
Язык                                     : Russian
ServiceKind/String                       : Complete Main
Default                                  : Да
Forced                                   : Нет

Меню
00:00:00.000                             : en:00:00:00.000
00:12:34.712                             : en:00:12:34.712
00:18:06.877                             : en:00:18:06.877
00:25:15.222                             : en:00:25:15.222
00:33:35.722                             : en:00:33:35.722
00:40:56.954                             : en:00:40:56.954
00:49:23.669                             : en:00:49:23.669
00:57:14.765                             : en:00:57:14.765
01:05:52.740                             : en:01:05:52.740
01:12:59.083                             : en:01:12:59.083
01:20:37.040                             : en:01:20:37.040
01:33:58.591                             : en:01:33:58.591
01:41:34.171                             : en:01:41:34.171
01:53:50.365                             : en:01:53:50.365
02:02:22.961                             : en:02:02:22.961
02:14:07.039                             : en:02:14:07.039

Скриншоты:

Время раздачи: с 14:00 до 23:00 (до появления первых 3-5 скачавших)
Не забывайте говорить Спасибо. Не уходите с раздачи!   
Торрент: Зарегистрирован [09 окт 2019, 17:39]
Статус:
Проверен
 
.torrent скачан: 0 раз
Хэш: 4ab78b793a0e458e3f7941fbf136ba6a75f66d1b
Размер: 4.51 ГБ (4 838 916 730 байт)
   Стать Автором раздачи
   
Цитата
  • Похожие торренты
    Ответы
    Просмотры
    Последнее сообщение

Вернуться в Зарубежное кино (HD Video)

Кто сейчас на конференции

Сейчас эту тему просматривают: нет зарегистрированных пользователей и гости: 1