Уцелевшая / Survivor (2015) BDRip [H.264/1080p]

 Статистика раздачи 
Размер: 6.64 ГБ   |  Зарегистрирован: 09 окт 2019, 16:41   |   .torrent скачан: 0 раз
Сидеров: 66  [ 0 байт/сек ]     Личеров: 6  [ 0 байт/сек ]  
  
Аватара пользователя
Я на сайте
 
Раздал: 6.42 ТБ
Скачал: 483.69 ГБ
Ратио: 13.600
Сообщения: 243515
Стаж: 2 года 6 месяцев 25 дней
СообщениеДобавлено: 09 окт 2019, 16:41


Уцелевшая / Survivor (2015) BDRip [H.264/1080p]

Производство: США, Великобритания, Nu Image Films, Millennium Films, Winkler Films
Жанр: Боевик, Триллер

Режиссер: Джеймс МакТиг
Актеры: Милла Йовович, Пирс Броснан, Дилан МакДермотт, Анджела Бассетт, Джеймс Д`Арси, Антония Томас, Фрэнсис де ла Тур, Роберт Форстер, Роджер Рис, Кори Джонсон

Описание:
История закручена вокруг сотрудницы Госдепартамента США, которая была отправлена своим начальством в американское посольство в Лондоне, чтобы предотвратить проникновение в страну террористов. Однако все пошло не так, как планировалось: неожиданно героиня сама становится одной из главных подозреваемых. За преступления, в которых ее обвиняют - смертная казнь, поэтому она пускается в бега, чтобы доказать свою невиновность, а также предотвратить террористическую атаку на Нью-Йорк в канун Рождества...

https://www.imdb.com/title/tt3247714/?ref_=plg_rt_1
Возраст: 16+ (зрителям, достигшим 16 лет)
Рейтинг MPAA: PG-13 (детям до 13 лет просмотр нежелателен)

Релиз от: SergeyAms

Продолжительность: 01:36:54
Качество видео: BDRip
Перевод: Дублированный, многоголосый закадровый, одноголосый авторский
Субтитры: английские (полные)

Видео: AVC, 1920х804, ~7,5 Mbps
Аудио #1: AC3, 6 ch, 384 Kbps - русский (дубляж)
Аудио #2: AC3, 2 ch, 384 Kbps - русский (MVO, ColdFilm)
Аудио #3: AC3, 6 ch, 448 Kbps - русский (MVO, Lord32x Studio)
Аудио #4: AC3, 6 ch, 384 Kbps - русский (AVO, Xixidok)
Аудио #5: DTS, 6 ch, 768 Kbps - английский
Код: Выделить всё
x264 info: frame I:1130  Avg QP:12.97  size:181080
x264 info: frame P:37606 Avg QP:15.31  size: 69952
x264 info: frame B:100110 Avg QP:17.37  size: 25785

Unique ID                                : 241529126884792460762230106128227438914 (0xB5B4D15ABEC892989B855B1AF0CB1142)
Complete name                            : D:\Temp\NNM\Survivor.2015.1080p.mkv
Format                                   : Matroska
Format version                           : Version 4 / Version 2
File size                                : 6.64 GiB
Duration                                 : 1h 36mn
Overall bit rate                         : 9 861 Kbps
Movie name                               : Survivor. 2015
Encoded date                             : UTC 2019-10-09 13:33:34
Writing application                      : mkvmerge v9.8.0 ('Kuglblids') 64bit
Writing library                          : libebml v1.3.4 + libmatroska v1.4.5

Video
ID                                       : 1
Format                                   : AVC
Format/Info                              : Advanced Video Codec
Format profile                           : [url=http://nnmclub.to/mailto:High@L4.1]High@L4.1[/url]
Format settings, CABAC                   : Yes
Format settings, ReFrames                : 5 frames
Codec ID                                 : V_MPEG4/ISO/AVC
Duration                                 : 1h 36mn
Bit rate                                 : 7 500 Kbps
Width                                    : 1 920 pixels
Height                                   : 804 pixels
Display aspect ratio                     : 2.40:1
Frame rate mode                          : Constant
Frame rate                               : 24.000 fps
Color space                              : YUV
Chroma subsampling                       : 4:2:0
Bit depth                                : 8 bits
Scan type                                : Progressive
Bits/(Pixel*Frame)                       : 0.202
Stream size                              : 4.91 GiB (74%)
Writing library                          : x264 core 157 r2935 545de2f
Encoding settings                        : cabac=1 / ref=5 / deblock=1:-3:-3 / analyse=0x3:0x113 / me=umh / subme=10 / psy=1 / psy_rd=1.05:0.10 / mixed_ref=1 / me_range=24 / chroma_me=1 / trellis=2 / 8x8dct=1 / cqm=0 / deadzone=21,11 / fast_pskip=0 / chroma_qp_offset=-3 / threads=5 / lookahead_threads=1 / sliced_threads=0 / nr=0 / decimate=0 / interlaced=0 / bluray_compat=0 / constrained_intra=0 / bframes=8 / b_pyramid=2 / b_adapt=2 / b_bias=0 / direct=1 / weightb=1 / open_gop=0 / weightp=2 / keyint=240 / keyint_min=24 / scenecut=40 / intra_refresh=0 / rc=2pass / mbtree=0 / bitrate=7500 / ratetol=1.0 / qcomp=0.70 / qpmin=3 / qpmax=69 / qpstep=4 / cplxblur=20.0 / qblur=0.5 / ip_ratio=1.40 / pb_ratio=1.30 / aq=2:1.00
Default                                  : Yes
Forced                                   : No

Audio #1
ID                                       : 2
Format                                   : AC-3
Format/Info                              : Audio Coding 3
Mode extension                           : CM (complete main)
Format settings, Endianness              : Big
Codec ID                                 : A_AC3
Duration                                 : 1h 36mn
Bit rate mode                            : Constant
Bit rate                                 : 384 Kbps
Channel(s)                               : 6 channels
Channel positions                        : Front: L C R, Side: L R, LFE
Sampling rate                            : 48.0 KHz
Bit depth                                : 16 bits
Compression mode                         : Lossy
Stream size                              : 265 MiB (4%)
Title                                    : дубляж
Language                                 : Russian
Default                                  : Yes
Forced                                   : No

Audio #2
ID                                       : 3
Format                                   : AC-3
Format/Info                              : Audio Coding 3
Mode extension                           : CM (complete main)
Format settings, Endianness              : Big
Codec ID                                 : A_AC3
Duration                                 : 1h 36mn
Bit rate mode                            : Constant
Bit rate                                 : 384 Kbps
Channel(s)                               : 2 channels
Channel positions                        : Front: L R
Sampling rate                            : 48.0 KHz
Bit depth                                : 16 bits
Compression mode                         : Lossy
Delay relative to video                  : 800ms
Stream size                              : 265 MiB (4%)
Title                                    : Любительский двухголосый | ColdFilm
Language                                 : Russian
Default                                  : No
Forced                                   : No

Audio #3
ID                                       : 4
Format                                   : AC-3
Format/Info                              : Audio Coding 3
Mode extension                           : CM (complete main)
Format settings, Endianness              : Big
Codec ID                                 : A_AC3
Duration                                 : 1h 36mn
Bit rate mode                            : Constant
Bit rate                                 : 448 Kbps
Channel(s)                               : 6 channels
Channel positions                        : Front: L C R, Side: L R, LFE
Sampling rate                            : 48.0 KHz
Bit depth                                : 16 bits
Compression mode                         : Lossy
Delay relative to video                  : 800ms
Stream size                              : 309 MiB (5%)
Title                                    : Любительский многоголосый | Lord32x Studio
Language                                 : Russian
Default                                  : No
Forced                                   : No

Audio #4
ID                                       : 5
Format                                   : AC-3
Format/Info                              : Audio Coding 3
Mode extension                           : CM (complete main)
Format settings, Endianness              : Big
Codec ID                                 : A_AC3
Duration                                 : 1h 36mn
Bit rate mode                            : Constant
Bit rate                                 : 384 Kbps
Channel(s)                               : 6 channels
Channel positions                        : Front: L C R, Side: L R, LFE
Sampling rate                            : 48.0 KHz
Bit depth                                : 16 bits
Compression mode                         : Lossy
Delay relative to video                  : 800ms
Stream size                              : 265 MiB (4%)
Title                                    : Любительский одноголосый | Xixidok
Language                                 : Russian
Default                                  : No
Forced                                   : No

Audio #5
ID                                       : 6
Format                                   : DTS
Format/Info                              : Digital Theater Systems
Mode                                     : 16
Format settings, Endianness              : Big
Codec ID                                 : A_DTS
Duration                                 : 1h 36mn
Bit rate mode                            : Constant
Bit rate                                 : 768 Kbps
Channel(s)                               : 6 channels
Channel positions                        : Front: L C R, Side: L R, LFE
Sampling rate                            : 48.0 KHz
Bit depth                                : 16 bits
Compression mode                         : Lossy
Stream size                              : 530 MiB (8%)
Language                                 : English
Default                                  : No
Forced                                   : No

Text
ID                                       : 7
Format                                   : UTF-8
Codec ID                                 : S_TEXT/UTF8
Codec ID/Info                            : UTF-8 Plain Text
Language                                 : English
Default                                  : No
Forced                                   : No

Menu
00:00:00.000                             : en:00:00:00.000
00:07:14.559                             : en:00:07:14.559
00:16:04.672                             : en:00:16:04.672
00:24:17.581                             : en:00:24:17.581
00:32:13.890                             : en:00:32:13.890
00:39:44.299                             : en:00:39:44.299
00:47:37.480                             : en:00:47:37.480
00:56:07.030                             : en:00:56:07.030
01:03:35.186                             : en:01:03:35.186
01:11:51.265                             : en:01:11:51.265
01:19:03.489                             : en:01:19:03.489
01:27:43.258                             : en:01:27:43.258

Скриншоты:

Не забывайте говорить Спасибо. Не уходите с раздачи!   
Торрент: Зарегистрирован [09 окт 2019, 16:41]
Статус:
Проверен
 
.torrent скачан: 0 раз
Хэш: 645bc4b7a323cdd6691b2d1ccb435bbb4b2d3dfd
Размер: 6.64 ГБ (7 131 049 807 байт)
   Стать Автором раздачи
   
Цитата

Вернуться в Зарубежное кино (HD Video)

Кто сейчас на конференции

Сейчас эту тему просматривают: нет зарегистрированных пользователей и гости: 1