Живешь только дважды / You Only Live Twice (1967) BDRemux 1080p | D | 50th Anniversary Edition

 Статистика раздачи 
Размер: 25.93 ГБ   |  Зарегистрирован: 09 окт 2019, 16:53   |   .torrent скачан: 38 раз
Сидеров: 11  [ 0 байт/сек ]     Личеров: 10  [ 0 байт/сек ]  
  
Аватара пользователя
Я на сайте
 
Раздал: 6.42 ТБ
Скачал: 483.69 ГБ
Ратио: 13.600
Сообщения: 243543
Стаж: 2 года 6 месяцев 25 дней

Название: Живешь только дважды
Оригинальное название: You Only Live Twice
Год выпуска: 1967
Жанр: Боевик, триллер, приключения, экранизация
Выпущено: Великобритания, Danjaq, Eon Productions Ltd.
Режиссер: Льюис Гилберт
В ролях: Шон Коннери, Акико Вакабаяси, Миэ Хама, Тэцуро Тамба, Тэру Симада, Карин Дор, Дональд Плезенс, Бернард Ли, Лоис Максвелл, Дезмонд Льюэлин, Чарльз Грей, Цай Чинь, Берт Квук, Майкл Чоу, Рональд Рич, Джинн Роланд, Джон Стоун, Норман Джонс, Пол Карсон, Лоуренс Хердер, Ричард Грейдон, Билл Митчел, Джордж Рубисек

О фильме: Экранизация одноименного романа Яна Флеминга. Международный преступный синдикат СПЕКТР - давний и отнюдь не добрый знакомый отважного и виртуозного в своём суперагентском деле Джеймса Бонда - похож на мифологическую гидру... И, хотя Бонд всякий раз основательно "прижигает" всё, что остаётся после очередной "отсечённой головы", голов этих у СПЕКТРа в запасе ещё найдётся. Там никак не могут поверить в самое главное - что все их усилия способен разрушить всего один, и притом всякий раз - один и тот же человек... Но на этот раз - особый случай, и у Бонда вообще нет ни малейшего права на ошибку. СПЕКТРу оказалось по силам ловко "столкнуть лбами" мировые сверхдержавы Востока и Запада, едва не устроив самую настоящую ядерную войну. И обстоятельства, конечно, сложатся так, что решение проблемы, волею проказницы - шпионской судьбы, окажется в надёжных и сверхсекретных бондовских руках. Незримая и непримиримая битва нежданно перенесётся в Японию, где решительно всё будет против него - от замыслов лучших преступных умов мира до беспощадных мечей древних ниндзя и коварного очарования гейш. Но Бонду есть, что этому противопоставить... Ведь он - всё тот же, единственный и неповторимый, Агент 007!



Качество: Blu-Ray Remux (1080p) СЭМПЛ до 16-10-2019, качайте и будет жить дольше
Видео: MPEG-4 AVC, 26.9 Мбит/с, 1920x1080, 23.976 кадр/с
Аудио: Русский (DTS, 6 ch, 768 Кбит/с), английский (DTS-HD MA, 6 ch, 3861 Кбит/с), (АС3, 2 ch, 224 Кбит/с)
Размер: 25.93 ГБ
Продолжительность: 01:56:58
Перевод: Дублированный
Субтитры: Русские, английские

General
Unique ID : 119186811541104889783817137019198627560 (0x59AA8B80AEFD694117B55D75A6A3DEE8)
Complete name : YOU ONLY LIVE TWICE BDRemux.mkv
Format : Matroska
Format version : Version 4
File size : 25.9 GiB
Duration : 1 h 56 min
Overall bit rate mode : Variable
Overall bit rate : 31.7 Mb/s
Movie name : You Only Live Twice (1967) @niks@
Encoded date : UTC 2019-09-20 19:31:06
Writing application : mkvmerge v33.1.0 ('Primrose') 64-bit
Writing library : libebml v1.3.7 + libmatroska v1.5.0

Video
ID : 1
Format : AVC
Format/Info : Advanced Video Codec
Format profile : High@L4.1
Format settings : CABAC / 4 Ref Frames
Format settings, CABAC : Yes
Format settings, Reference fra : 4 frames
Codec ID : V_MPEG4/ISO/AVC
Duration : 1 h 56 min
Bit rate mode : Variable
Bit rate : 26.9 Mb/s
Maximum bit rate : 35.0 Mb/s
Width : 1 920 pixels
Height : 1 080 pixels
Display aspect ratio : 16:9
Frame rate mode : Constant
Frame rate : 23.976 (24000/1001) FPS
Color space : YUV
Chroma subsampling : 4:2:0
Bit depth : 8 bits
Scan type : Progressive
Bits/(Pixel*Frame) : 0.541
Stream size : 22.0 GiB (85%)
Language : English
Default : Yes
Forced : No

Audio #1
ID : 2
Format : DTS
Format/Info : Digital Theater Systems
Codec ID : A_DTS
Duration : 1 h 56 min
Bit rate mode : Constant
Bit rate : 768 kb/s
Channel(s) : 6 channels
Channel layout : C L R Ls Rs LFE
Sampling rate : 48.0 kHz
Frame rate : 93.750 FPS (512 SPF)
Bit depth : 24 bits
Compression mode : Lossy
Stream size : 643 MiB (2%)
Title : Russian Dub [BluRay]
Language : Russian
Default : Yes
Forced : No

Audio #2
ID : 3
Format : AC-3
Format/Info : Audio Coding 3
Commercial name : Dolby Digital
Codec ID : A_AC3
Duration : 1 h 56 min
Bit rate mode : Constant
Bit rate : 224 kb/s
Channel(s) : 2 channels
Channel layout : L R
Sampling rate : 48.0 kHz
Frame rate : 31.250 FPS (1536 SPF)
Bit depth : 16 bits
Compression mode : Lossy
Stream size : 187 MiB (1%)
Title : English Commentary
Language : English
Service kind : Complete Main
Default : No
Forced : No

Audio #3
ID : 4
Format : DTS XLL
Format/Info : Digital Theater Systems
Commercial name : DTS-HD Master Audio
Codec ID : A_DTS
Duration : 1 h 56 min
Bit rate mode : Variable
Bit rate : 3 861 kb/s
Channel(s) : 6 channels
Channel layout : C L R Ls Rs LFE
Sampling rate : 48.0 kHz
Frame rate : 93.750 FPS (512 SPF)
Bit depth : 24 bits
Compression mode : Lossless
Stream size : 3.15 GiB (12%)
Title : English
Language : English
Default : No
Forced : No

Text #1
ID : 5
Format : UTF-8
Codec ID : S_TEXT/UTF8
Codec ID/Info : UTF-8 Plain Text
Duration : 1 h 56 min
Bit rate : 57 b/s
Count of elements : 859
Stream size : 49.3 KiB (0%)
Title : full
Language : Russian
Default : Yes
Forced : No

Text #2
ID : 6
Format : UTF-8
Codec ID : S_TEXT/UTF8
Codec ID/Info : UTF-8 Plain Text
Duration : 1 h 56 min
Bit rate : 34 b/s
Count of elements : 850
Stream size : 29.0 KiB (0%)
Title : English
Language : English
Default : No
Forced : No

Menu
00:00:00.000 : en:Chapter 01
00:05:02.093 : en:Chapter 02
00:06:10.537 : en:Chapter 03
00:08:54.075 : en:Chapter 04
00:11:49.375 : en:Chapter 05
00:15:23.089 : en:Chapter 06
00:19:25.915 : en:Chapter 07
00:24:18.916 : en:Chapter 08
00:28:19.656 : en:Chapter 09
00:31:28.720 : en:Chapter 10
00:33:09.112 : en:Chapter 11
00:36:14.589 : en:Chapter 12
00:40:48.071 : en:Chapter 13
00:44:17.822 : en:Chapter 14
00:46:59.817 : en:Chapter 15
00:51:13.779 : en:Chapter 16
00:54:37.274 : en:Chapter 17
00:58:58.702 : en:Chapter 18
01:03:27.846 : en:Chapter 19
01:09:01.971 : en:Chapter 20
01:12:26.717 : en:Chapter 21
01:14:07.068 : en:Chapter 22
01:17:33.649 : en:Chapter 23
01:20:25.904 : en:Chapter 24
01:24:25.686 : en:Chapter 25
01:28:42.734 : en:Chapter 26
01:34:54.647 : en:Chapter 27
01:35:49.994 : en:Chapter 28
01:38:13.179 : en:Chapter 29
01:44:26.302 : en:Chapter 30
01:48:19.535 : en:Chapter 31
01:53:25.507 : en:Chapter 32

Не забывайте говорить Спасибо. Не уходите с раздачи!   
Торрент: Зарегистрирован [09 окт 2019, 16:53]
Статус:
Проверен
 
.torrent скачан: 38 раз
Хэш: 19864b44f40a211f6b586b04452afded19d1dbfe
Размер: 25.93 ГБ (27 844 015 222 байт)
   Стать Автором раздачи
   
Цитата
  • Похожие торренты
    Ответы
    Просмотры
    Последнее сообщение

Вернуться в Классика зарубежного кино (DVD, DVDRip, HD Video)

Кто сейчас на конференции

Сейчас эту тему просматривают: нет зарегистрированных пользователей и гости: 1