Охота на Веронику / Veronica Guerin (2003) BDRemux [H.264/1080p]

 Статистика раздачи 
Размер: 18.07 ГБ   |  Зарегистрирован: 06 окт 2019, 13:07   |   .torrent скачан: 87 раз
Сидеров: 14  [ 0 байт/сек ]     Личеров: 4  [ 0 байт/сек ]  
  
Аватара пользователя
Я на сайте
 
Раздал: 6.4 ТБ
Скачал: 483.58 ГБ
Ратио: 13.557
Сообщения: 243114
Стаж: 2 года 6 месяцев 22 дня

Охота на Веронику / Veronica Guerin (2003) BDRemux [H.264/1080p]
«Она осмелилась бросить вызов мафии. Вызов был принят»

Производство: Ирландия, Великобритания, США / Touchstone Pictures, Jerry Bruckheimer Films, Persevere Productions Ltd.
Жанр: Триллер, драма, криминал, биография

Режиссер: Джоэл Шумахер
Продюсер: Джерри Брукхаймер, Нед Дауд, Джеймс Флинн
Актеры: Кейт Бланшетт, Джерард МакСорли, Киран Хайндс, Бренда Фрикер, Дон Вичерли, Бэрри Барнс, Саймон О’Дрискол, Эммет Бергин, Шарлотта Брэдли, Марк Лэмберт

Описание:
Середина 90-х. В Ирландии идет настоящая война католиков и протестантов. Ситуация осложняется разборками среди местных наркобаронов. Всю страшную правду о преступлениях люди узнают не от полиции и государственных чиновников, а от бесстрашной журналистки независимого издания Вероники Герин.
Рискуя карьерой, жизнью и семьей, она добывает самые достоверные факты. Однако ее статьи не по нраву подпольным наркодилерам, и на нее открывают настоящую охоту. Но с каждым новым покушением Вероника становится все более популярной. В 1996 году она все же погибает от рук наемных убийц, что влечет за собой волну протестов и полный пересмотр многих законов Ирландии, а также арест главных авторитетов наркомафии…

https://www.imdb.com/title/tt0312549/?ref_=plg_rt_1
Возраст: 16+ (зрителям, достигшим 16 лет)
Рейтинг MPAA: R (лицам до 17 лет обязательно присутствие взрослого)

Релиз от: NNMClub

Продолжительность: 01:38:18
Качество видео: BDRemux 1080p
Перевод: Профессиональный, многоголосый закадровый
Субтитры: Русские, английские (SDH)

Видео: AVC/H.264, 1920x1080, (16:9), ~23.9 Mbps, 23.976 fps
Аудио 1: AC3, 6 ch, 384 Kbps - Русский (MVO - R5 / Видеосервис)
Аудио 2: AC3, 2 ch, 192 Kbps - Русский (MVO - Первый канал)
Аудио 3: DTS-HD MA, 6 ch, 1848 Kbps - Английский (оригинал)
Код: Выделить всё
General
Unique ID                   : 229982936640334883905579716174885366797 (0xAD051A3955F05CA323022BD5D2FB2C0D)
Complete name               : F:\Veronica.Guerin.2003.BDRemux.1080p.NNMClub.mkv
Format                      : Matroska
Format version              : Version 4
File size                   : 18.1 GiB
Duration                    : 1 h 38 min
Overall bit rate mode       : Variable
Overall bit rate            : 26.3 Mb/s
Movie name                  : Veronica Guerin (2003) | NNMClub
Encoded date                : UTC 2019-10-06 10:42:15
Writing application         : mkvmerge v37.0.0 ('Leave It') 64-bit
Writing library             : libebml v1.3.9 + libmatroska v1.5.2
Cover                       : Yes
Attachments                 : Cover.jpg

Video
ID                          : 1
Format                      : AVC
Format/Info                 : Advanced Video Codec
Format profile              : [url=http://nnmclub.to/mailto:High@L4.1]High@L4.1[/url]
Format settings             : CABAC / 4 Ref Frames
Format settings, CABAC      : Yes
Format settings, Reference  : 4 frames
Codec ID                    : V_MPEG4/ISO/AVC
Duration                    : 1 h 38 min
Bit rate mode               : Variable
Bit rate                    : 23.9 Mb/s
Maximum bit rate            : 35.0 Mb/s
Width                       : 1 920 pixels
Height                      : 1 080 pixels
Display aspect ratio        : 16:9
Frame rate mode             : Constant
Frame rate                  : 23.976 (24000/1001) FPS
Color space                 : YUV
Chroma subsampling          : 4:2:0
Bit depth                   : 8 bits
Scan type                   : Progressive
Bits/(Pixel*Frame)          : 0.480
Stream size                 : 16.4 GiB (91%)
Title                       : Veronica Guerin (2003)
Language                    : English
Default                     : Yes
Forced                      : No

Audio #1
ID                          : 2
Format                      : AC-3
Format/Info                 : Audio Coding 3
Commercial name             : Dolby Digital
Codec ID                    : A_AC3
Duration                    : 1 h 38 min
Bit rate mode               : Constant
Bit rate                    : 384 kb/s
Channel(s)                  : 6 channels
Channel layout              : L R C LFE Ls Rs
Sampling rate               : 48.0 kHz
Frame rate                  : 31.250 FPS (1536 SPF)
Compression mode            : Lossy
Stream size                 : 270 MiB (1%)
Title                       : MVO | Видеосервис
Language                    : Russian
Service kind                : Complete Main
Default                     : Yes
Forced                      : No

Audio #2
ID                          : 3
Format                      : AC-3
Format/Info                 : Audio Coding 3
Commercial name             : Dolby Digital
Codec ID                    : A_AC3
Duration                    : 1 h 38 min
Bit rate mode               : Constant
Bit rate                    : 192 kb/s
Channel(s)                  : 2 channels
Channel layout              : L R
Sampling rate               : 48.0 kHz
Frame rate                  : 31.250 FPS (1536 SPF)
Compression mode            : Lossy
Stream size                 : 135 MiB (1%)
Title                       : MVO | Первый канал
Language                    : Russian
Service kind                : Complete Main
Default                     : No
Forced                      : No

Audio #3
ID                          : 4
Format                      : DTS XLL
Format/Info                 : Digital Theater Systems
Commercial name             : DTS-HD Master Audio
Codec ID                    : A_DTS
Duration                    : 1 h 38 min
Bit rate mode               : Variable
Bit rate                    : 1 848 kb/s
Channel(s)                  : 6 channels
Channel layout              : C L R Ls Rs LFE
Sampling rate               : 48.0 kHz
Frame rate                  : 93.750 FPS (512 SPF)
Bit depth                   : 16 bits
Compression mode            : Lossless
Stream size                 : 1.27 GiB (7%)
Title                       : Original
Language                    : English
Default                     : No
Forced                      : No

Text #1
ID                          : 5
Format                      : UTF-8
Codec ID                    : S_TEXT/UTF8
Codec ID/Info               : UTF-8 Plain Text
Duration                    : 1 h 32 min
Bit rate                    : 89 b/s
Count of elements           : 895
Stream size                 : 60.9 KiB (0%)
Title                       : Full
Language                    : Russian
Default                     : No
Forced                      : No

Text #2
ID                          : 6
Format                      : UTF-8
Codec ID                    : S_TEXT/UTF8
Codec ID/Info               : UTF-8 Plain Text
Duration                    : 1 h 33 min
Bit rate                    : 77 b/s
Count of elements           : 1643
Stream size                 : 53.1 KiB (0%)
Title                       : SDH
Language                    : English
Default                     : No
Forced                      : No

Menu
00:00:00.000                : 00:00:00.000
00:12:10.730                : 00:12:10.730
00:22:38.647                : 00:22:38.647
00:35:56.404                : 00:35:56.404
00:51:08.774                : 00:51:08.774
01:01:50.456                : 01:01:50.456
01:14:27.963                : 01:14:27.963
01:24:33.359                : 01:24:33.359

Скриншоты:



Время раздачи: 24/7 до первых 10-и скачавших
Не забывайте говорить Спасибо. Не уходите с раздачи!   
Торрент: Зарегистрирован [06 окт 2019, 13:07]
Статус:
Проверен
 
.torrent скачан: 87 раз
Хэш: 79fe6b467a6f28c29e00e137b10935355fbec75a
Размер: 18.07 ГБ (19 397 635 622 байт)
   Стать Автором раздачи
   
Цитата
  • Похожие торренты
    Ответы
    Просмотры
    Последнее сообщение

Вернуться в Зарубежное кино (HD Video)

Кто сейчас на конференции

Сейчас эту тему просматривают: нет зарегистрированных пользователей и гости: 1