Бык (2019) WEB-DLRip

 Статистика раздачи 
Размер: 1.45 ГБ   |  Зарегистрирован: 19 сен 2019, 10:08   |   .torrent скачан: 0 раз
Сидеров: 0  [ 0 байт/сек ]     Личеров: 0  [ 0 байт/сек ]  
  
Аватара пользователя
 
Раздал: 6.43 ТБ
Скачал: 484.95 ГБ
Ратио: 13.576
Сообщения: 243714
Стаж: 2 года 6 месяцев 26 дней
СообщениеДобавлено: 19 сен 2019, 10:08


Бык (2019) WEB-DLRip

Производство: Россия / ВГИК-Дебют
Жанр: Драма

Режиссер: Борис Акопов
Актеры: Юрий Борисов, Стася Милославская, Афина Кондрашова, Егор Кенжаметов, Александр Самсонов, Игорь Савочкин, Алексей Филимонов, Сергей Двойников, Александр Левин, Роман Колотухин

Описание:
90-е годы. Экономическая пропасть и криминальные драмы, разворачивающиеся буквально на каждом углу. Молодой лидер преступной группировки Антон Быков по прозвищу «Бык» вынужден зарабатывать любыми способами, чтобы обеспечить свою семью. После районной «стрелки» Антон попадает в отделение милиции, откуда его вызволяет один из московских авторитетов. Взамен он просит героя о маленькой, но опасной услуге.

https://www.imdb.com/title/tt10409590/?ref_=plg_rt_1
Возраст: 16+ (зрителям, достигшим 16 лет)
Дата мировой премьеры: 2 июля 2019
Дата российской премьеры: 22 августа 2019

Продолжительность: 01:39:27
Качество видео: WEB-DLRip
Перевод: Не требуется (русский) iTunes
Субтитры: Отсутствуют

Видео: Xvid, 720x272, ~1695 Kbps
Аудио: AC3, 6 ch, 384 Kbps
Код: Выделить всё
Общее
Полное имя                               : G:\Бык.avi
Формат                                   : AVI
Формат/Информация                        : Audio Video Interleave
Профиль формата                          : OpenDML
Размер файла                             : 1,45 Гбайт
Продолжительность                        : 1 ч. 39 м.
Общий поток                              : 2091 Кбит/сек
Программа кодирования                    : XviD4PSP 6.0 / 53.6.0

Видео
Идентификатор                            : 0
Формат                                   : MPEG-4 Visual
Профиль формата                          : Advanced Simple@L5
Настройки формата                        : BVOP1 / Custom Matrix
Параметр BVOP формата                    : 1
Параметр QPel формата                    : Нет
Параметр GMC формата                     : Без точки перехода
Параметр матрицы формата                 : Выборочная
Идентификатор кодека                     : XVID
Идентификатор кодека/Подсказка           : XviD
Продолжительность                        : 1 ч. 39 м.
Битрейт                                  : 1695 Кбит/сек
Ширина                                   : 720 пикселей
Высота                                   : 272 пикселя
Соотношение сторон                       : 2,647
Частота кадров                           : 23,976 (23976/1000) кадра/сек
Цветовое пространство                    : YUV
Субдискретизация насыщенности            : 4:2:0
Битовая глубина                          : 8 бит
Тип развёртки                            : Прогрессивная
Метод сжатия                             : С потерями
Бит/(Пиксели*Кадры)                      : 0.361
Размер потока                            : 1,18 Гбайт (81%)
Библиотека кодирования                   : XviD 73

Аудио
Идентификатор                            : 1
Формат                                   : AC-3
Формат/Информация                        : Audio Coding 3
Коммерческое название                    : Dolby Digital
Идентификатор кодека                     : 2000
Продолжительность                        : 1 ч. 39 м.
Вид битрейта                             : Постоянный
Битрейт                                  : 384 Кбит/сек
Каналы                                   : 6 каналов
ChannelLayout                            : L R C LFE Ls Rs
Частота                                  : 48,0 КГц
Частота кадров                           : 31,250 кадров/сек (1536 SPF)
Битовая глубина                          : 16 бит
Метод сжатия                             : С потерями
Размер потока                            : 273 Мбайт (18%)
Выравнивание                             : Соединение по промежуткам
Продолжительность промежутка             : 32  мс. (0,77 видеокадр)
ServiceKind/String                       : Complete Main

Скриншоты:


Время раздачи: 24/7 (круглосуточно) (до появления первых 3-5 скачавших)
Не забывайте говорить Спасибо. Не уходите с раздачи!   
Торрент: Зарегистрирован [19 сен 2019, 10:08]
Статус:
Проверен
 
.torrent скачан: 0 раз
Хэш: 69de281a233777a395ce0383284f0f9aecd74684
Размер: 1.45 ГБ (1 559 416 230 байт)
   Стать Автором раздачи
   
Цитата

Вернуться в Наше кино (Rips)

Кто сейчас на конференции

Сейчас эту тему просматривают: нет зарегистрированных пользователей и гости: 1