Чернобыль: Зона отчуждения. Финал (2019) WEBRip [H.264/720p-LQ] (Фильм 1)

 Статистика раздачи 
Размер: 2.63 ГБ   |  Зарегистрирован: 19 сен 2019, 07:34   |   .torrent скачан: 0 раз
Сидеров: 0  [ 0 байт/сек ]     Личеров: 0  [ 0 байт/сек ]  
  
Аватара пользователя
Я на сайте
 
Раздал: 6.42 ТБ
Скачал: 483.69 ГБ
Ратио: 13.589
Сообщения: 243366
Стаж: 2 года 6 месяцев 24 дня

Чернобыль: Зона отчуждения. Финал (2019) WEBRip [H.264/720p-LQ]

Производство: Россия / PREMIER Studios, Look Film
Жанр: Триллер, фантастика

Режиссер: Дмитрий Киселёв
Актеры: Константин Давыдов, Кристина Казинская, Анвар Халилулаев, Валерия Дмитриева, Владимир Ильин, Евгений Стычкин, Сергей Романович, Евгений Сытый, Илья Щербинин, Наталья Коляканова

Описание:
В аномальной зоне Чернобыля, под защитным саркофагом четвёртого энергоблока, корпорация «Глобал Кинтек» ведёт незаконное строительство. Этим планам пытается помешать специальная межгосударственная комиссия, но прямо во время пресс-конференции на её руководителя нападает группа неизвестных террористов. И возглавляет их не кто иной, как Паша — когда-то он успешно сражался с Зоной, но, похоже, что теперь Зона сама захватила его. Четвёрке его друзей — Ане, Лёхе, Насте и Гоше — не остаётся ничего другого, кроме как снова прыгнуть в старую «Волгу» и отправиться в Припять, чтобы попытаться спасти Пашу и предотвратить катастрофу мирового масштаба.

https://www.imdb.com/title/tt10100620/?ref_=plg_rt_1
Дата российской премьеры: 19 сентября 2019

Продолжительность: 01:41:44
Качество видео: WEBRip
Перевод: Не требуется (русский)
Субтитры: Отсутствуют

Видео: AVC/H.264, 1280x536 (2.40:1), ~3430 Kbps
Аудио: AC3, 2 ch, 192 Kbps
Код: Выделить всё
Общее
Уникальный идентификатор                 : 209590986447890123802810721334259196233 (0x9DADC174BA27131AA3E08177C481A149)
Полное имя                               : G:\Chernobyl.Zona.otchuzhdeniya.Final(.2019).mkv
Формат                                   : Matroska
Версия формата                           : Version 4
Размер файла                             : 2,63 Гбайт
Продолжительность                        : 1 ч. 41 м.
Общий поток                              : 3695 Кбит/сек
Дата кодирования                         : UTC 2019-09-18 23:14:27
Программа кодирования                    : mkvmerge v6.9.1 ('Blue Panther') 64bit built on Apr 18 2014 18:23:38
Библиотека кодирования                   : libebml v1.3.0 + libmatroska v1.4.1

Видео
Идентификатор                            : 1
Формат                                   : AVC
Формат/Информация                        : Advanced Video Codec
Профиль формата                          : [url=http://nnmclub.to/mailto:High@L4.1]High@L4.1[/url]
Настройки формата                        : CABAC / 9 Ref Frames
Параметр CABAC формата                   : Да
Параметр RefFrames формата               : 9 кадров
Параметр GOP формата                     : M=2, N=24
Идентификатор кодека                     : V_MPEG4/ISO/AVC
Продолжительность                        : 1 ч. 41 м.
Битрейт                                  : 3430 Кбит/сек
Ширина                                   : 1280 пикселей
Высота                                   : 536 пикселей
Соотношение сторон                       : 2,40:1
Режим частоты кадров                     : Постоянный
Частота кадров                           : 25,000 кадров/сек
Цветовое пространство                    : YUV
Субдискретизация насыщенности            : 4:2:0
Битовая глубина                          : 8 бит
Тип развёртки                            : Прогрессивная
Бит/(Пиксели*Кадры)                      : 0.200
Размер потока                            : 2,44 Гбайт (93%)
Default                                  : Нет
Forced                                   : Нет
Цветовой диапазон                        : Limited
Основные цвета                           : BT.709
Характеристики трансфера                 : BT.709
Коэффициенты матрицы                     : BT.709

Аудио
Идентификатор                            : 2
Формат                                   : AC-3
Формат/Информация                        : Audio Coding 3
Коммерческое название                    : Dolby Digital
Идентификатор кодека                     : A_AC3
Продолжительность                        : 1 ч. 41 м.
Вид битрейта                             : Постоянный
Битрейт                                  : 192 Кбит/сек
Каналы                                   : 2 канала
ChannelLayout                            : L R
Частота                                  : 48,0 КГц
Частота кадров                           : 31,250 кадров/сек (1536 SPF)
Метод сжатия                             : С потерями
Размер потока                            : 140 Мбайт (5%)
Язык                                     : Russian
ServiceKind/String                       : Complete Main
Default                                  : Да
Forced                                   : Нет

Скриншоты:


Время раздачи: 24/7 (круглосуточно) (до появления первых 3-5 скачавших)
Не забывайте говорить Спасибо. Не уходите с раздачи!   
Торрент: Зарегистрирован [19 сен 2019, 07:34]
Статус:
Проверен
 
.torrent скачан: 0 раз
Хэш: eda005176f310af80ab64fa9b62853e57d934bbc
Размер: 2.63 ГБ (2 819 568 112 байт)
   Стать Автором раздачи
   
Цитата

Вернуться в Наше кино (Rips)

Кто сейчас на конференции

Сейчас эту тему просматривают: нет зарегистрированных пользователей и гости: 1