Чернобыль: Зона отчуждения. Финал (2019) WEBRip (Фильм 1)

 Статистика раздачи 
Размер: 1.37 ГБ   |  Зарегистрирован: 19 сен 2019, 07:27   |   .torrent скачан: 0 раз
Сидеров: 0  [ 0 байт/сек ]     Личеров: 0  [ 0 байт/сек ]  
  
Аватара пользователя
Я на сайте
 
Раздал: 6.42 ТБ
Скачал: 483.69 ГБ
Ратио: 13.589
Сообщения: 243366
Стаж: 2 года 6 месяцев 24 дня

Чернобыль: Зона отчуждения. Финал (2019) WEBRip

Производство: Россия / PREMIER Studios, Look Film
Жанр: Триллер, фантастика

Режиссер: Дмитрий Киселёв
Актеры: Константин Давыдов, Кристина Казинская, Анвар Халилулаев, Валерия Дмитриева, Владимир Ильин, Евгений Стычкин, Сергей Романович, Евгений Сытый, Илья Щербинин, Наталья Коляканова

Описание:
В аномальной зоне Чернобыля, под защитным саркофагом четвёртого энергоблока, корпорация «Глобал Кинтек» ведёт незаконное строительство. Этим планам пытается помешать специальная межгосударственная комиссия, но прямо во время пресс-конференции на её руководителя нападает группа неизвестных террористов. И возглавляет их не кто иной, как Паша — когда-то он успешно сражался с Зоной, но, похоже, что теперь Зона сама захватила его. Четвёрке его друзей — Ане, Лёхе, Насте и Гоше — не остаётся ничего другого, кроме как снова прыгнуть в старую «Волгу» и отправиться в Припять, чтобы попытаться спасти Пашу и предотвратить катастрофу мирового масштаба.

https://www.imdb.com/title/tt10100620/?ref_=plg_rt_1
Дата российской премьеры: 19 сентября 2019

Продолжительность: 01:41:44
Качество видео: WEBRip
Перевод: Не требуется (русский)
Субтитры: Отсутствуют

Видео: Xvid, 720x304 (2,35:1), ~1730 Kbps
Аудио: AC3, 2 ch, 192 Kbps
Код: Выделить всё
Общее
Полное имя                               : G:\Chernobyl.Zona.otchuzhdeniya.Final..avi
Формат                                   : AVI
Формат/Информация                        : Audio Video Interleave
Размер файла                             : 1,37 Гбайт
Продолжительность                        : 1 ч. 41 м.
Общий поток                              : 1930 Кбит/сек
Программа кодирования                    : VirtualDubMod 1.5.10.3 | [url=http://www.virtualdub-fr.org]www.virtualdub-fr.org[/url] || (build 2550/release)
Библиотека кодирования                   : VirtualDubMod build 2550/release

Видео
Идентификатор                            : 0
Формат                                   : MPEG-4 Visual
Профиль формата                          : Advanced Simple@L5
Настройки формата                        : BVOP1
Параметр BVOP формата                    : 1
Параметр QPel формата                    : Нет
Параметр GMC формата                     : Без точки перехода
Параметр матрицы формата                 : Default (MPEG)
Идентификатор кодека                     : XVID
Идентификатор кодека/Подсказка           : XviD
Продолжительность                        : 1 ч. 41 м.
Битрейт                                  : 1728 Кбит/сек
Ширина                                   : 720 пикселей
Высота                                   : 304 пикселя
Соотношение сторон                       : 2,35:1
Частота кадров                           : 25,000 кадров/сек
Цветовое пространство                    : YUV
Субдискретизация насыщенности            : 4:2:0
Битовая глубина                          : 8 бит
Тип развёртки                            : Прогрессивная
Метод сжатия                             : С потерями
Бит/(Пиксели*Кадры)                      : 0.316
Размер потока                            : 1,23 Гбайт (90%)
Библиотека кодирования                   : XviD 73

Аудио
Идентификатор                            : 1
Формат                                   : AC-3
Формат/Информация                        : Audio Coding 3
Коммерческое название                    : Dolby Digital
Идентификатор кодека                     : 2000
Продолжительность                        : 1 ч. 41 м.
Вид битрейта                             : Постоянный
Битрейт                                  : 192 Кбит/сек
Каналы                                   : 2 канала
ChannelLayout                            : L R
Частота                                  : 48,0 КГц
Частота кадров                           : 31,250 кадров/сек (1536 SPF)
Метод сжатия                             : С потерями
Размер потока                            : 140 Мбайт (10%)
Выравнивание                             : Разделение по промежуткам
Продолжительность промежутка             : 40  мс. (1,00 видеокадр)
Время предзагрузки промежутка            : 500  мс.
ServiceKind/String                       : Complete Main

Скриншоты:


Время раздачи: 24/7 (круглосуточно) (до появления первых 3-5 скачавших)
Не забывайте говорить Спасибо. Не уходите с раздачи!   
Торрент: Зарегистрирован [19 сен 2019, 07:27]
Статус:
Проверен
 
.torrent скачан: 0 раз
Хэш: ea202ab21e11d201172672c15f0e9005cf75ab2c
Размер: 1.37 ГБ (1 472 227 328 байт)
   Стать Автором раздачи
   
Цитата

Вернуться в Наше кино (Rips)

Кто сейчас на конференции

Сейчас эту тему просматривают: нет зарегистрированных пользователей и гости: 1