За кулисами (2019) WEB-DLRip

 Статистика раздачи 
Размер: 1.06 ГБ   |  Зарегистрирован: 10 сен 2019, 11:23   |   .torrent скачан: 0 раз
Сидеров: 0  [ 0 байт/сек ]     Личеров: 0  [ 0 байт/сек ]  
  
Аватара пользователя
Я на сайте
 
Раздал: 6.42 ТБ
Скачал: 483.69 ГБ
Ратио: 13.587
Сообщения: 243366
Стаж: 2 года 6 месяцев 24 дня
СообщениеДобавлено: 10 сен 2019, 11:23


За кулисами (2019) WEB-DLRip
«Шекспир был прав: вся жизнь - театр!»

Производство: Россия / Студия «Дмитрия Куповых «Свободное кино», Творческое объединение «ШАГ», BIG BAG FILMS
Жанр: Комедия, драма

Режиссер: Илья Ермолов, Игорь Каграманов, Эвелина Барсегян
Актеры: Юрий Стоянов, Павел Деревянко, Карина Разумовская, Виктория Верберг, Денис Фомин, Алевтина Даниленко, Виктор Барченко, Сергей Бредюк, Михаил Калиничев, Борис Шильманский

Описание:
Зрители привыкли следить за перипетиями судеб вымышленных персонажей, но за кулисами могут разворачиваться не менее интересные истории. Иногда они смешные, иногда — страшные, но точно — всегда интересные.
Руководитель театра вынужден проявить всю свою управленческую хитрость в условиях дефицита финансов и талантов. Другой герой знакомит зрителя с проблемами гениального актёра, оказавшегося на площадке второсортного телесериала. А подсадной бравист внезапно встречает свою первую любовь в зрительном зале театра и на свою беду решает за ней приударить.

https://www.imdb.com/title/tt9878422/?ref_=plg_rt_1
Возраст: 16+ (зрителям, достигшим 16 лет)
Дата российской премьеры: 18 апреля 2019, «SFI-Distribution»

Релиз от: Алехаndr
Продолжительность: 01:17:02
Качество видео: WEB-DLRip
Перевод: Не требуется (русский)
Субтитры: Отсутствуют

Видео: Xvid, 720x304 (2,35:1), ~1760 Kbps
Аудио: AC3, 2 ch, 192 Kbps
Код: Выделить всё
Общее
Полное имя                               : D:\За кулисами (2019).by.Алехаndr.avi
Формат                                   : AVI
Формат/Информация                        : Audio Video Interleave
Профиль формата                          : OpenDML
Размер файла                             : 1,06 Гбайт
Продолжительность                        : 1 ч. 17 м.
Общий поток                              : 1966 Кбит/сек
Программа кодирования                    : Lavf58.20.100

Видео
Идентификатор                            : 0
Формат                                   : MPEG-4 Visual
Профиль формата                          : Advanced Simple@L5
Настройки формата                        : BVOP2
Параметр BVOP формата                    : 2
Параметр QPel формата                    : Нет
Параметр GMC формата                     : Без точки перехода
Параметр матрицы формата                 : Default (H.263)
Идентификатор кодека                     : XVID
Идентификатор кодека/Подсказка           : XviD
Продолжительность                        : 1 ч. 17 м.
Битрейт                                  : 1760 Кбит/сек
Ширина                                   : 720 пикселей
Высота                                   : 304 пикселя
Соотношение сторон                       : 2,35:1
Частота кадров                           : 24,000 кадра/сек
Цветовое пространство                    : YUV
Субдискретизация насыщенности            : 4:2:0
Битовая глубина                          : 8 бит
Тип развёртки                            : Прогрессивная
Метод сжатия                             : С потерями
Бит/(Пиксели*Кадры)                      : 0.335
Размер потока                            : 970 Мбайт (90%)
Библиотека кодирования                   : XviD 67

Аудио
Идентификатор                            : 1
Формат                                   : AC-3
Формат/Информация                        : Audio Coding 3
Коммерческое название                    : Dolby Digital
Идентификатор кодека                     : 2000
Продолжительность                        : 1 ч. 17 м.
Вид битрейта                             : Постоянный
Битрейт                                  : 192 Кбит/сек
Каналы                                   : 2 канала
ChannelLayout                            : L R
Частота                                  : 48,0 КГц
Частота кадров                           : 31,250 кадров/сек (1536 SPF)
Битовая глубина                          : 16 бит
Метод сжатия                             : С потерями
Размер потока                            : 106 Мбайт (10%)
Выравнивание                             : Соединение по промежуткам
Продолжительность промежутка             : 32  мс. (0,77 видеокадр)
ServiceKind/String                       : Complete Main

Скриншоты:


Время раздачи: 24/7 (круглосуточно) (до появления первых 3-5 скачавших)
Не забывайте говорить Спасибо. Не уходите с раздачи!   
Торрент: Зарегистрирован [10 сен 2019, 11:23]
Статус:
Проверен
 
.torrent скачан: 0 раз
Хэш: 11d45767839c83fab4b83ab190f67a3d32baad70
Размер: 1.06 ГБ (1 135 748 280 байт)
   Стать Автором раздачи
   
Цитата

Вернуться в Наше кино (Rips)

Кто сейчас на конференции

Сейчас эту тему просматривают: нет зарегистрированных пользователей и гости: 1