Экстрим (2019) WEBRip

 Статистика раздачи 
Размер: 291.8 МБ   |  Зарегистрирован: 13 авг 2019, 13:01   |   .torrent скачан: 0 раз
Сидеров: 0  [ 0 байт/сек ]     Личеров: 0  [ 0 байт/сек ]  
  
Аватара пользователя
 
Раздал: 6.43 ТБ
Скачал: 484.95 ГБ
Ратио: 13.576
Сообщения: 243714
Стаж: 2 года 6 месяцев 26 дней
СообщениеДобавлено: 13 авг 2019, 13:01


Экстрим (2019) WEBRip
«Она эту ночь не забудет, а он не запомнит»

Производство: Россия
Жанр: Короткометражный, комедия, криминал

Режиссер: Андрей Берченко
Актеры: Дмитрий Белоцерковский, Марина Митрофанова, Евгений Козлов, Александр Герасимов, Вячеслав Гуливицкий, Антон Шварц

Описание:
По дороге на рыбалку заводчанин со своей подопечной из Москвы, которую ему навязало руководство с целью организации досуга, становятся свидетелями разборки в стиле 90-х. Мужчина не меняет планов и все равно едет на выбранное место. Туда же приезжают и бандиты, чтобы избавиться от трупов.


Дата российской премьеры: 27 марта 2019

Релиз от: Алехаndr
Продолжительность: 00:24:58
Качество видео: WEBRip
Перевод: Не требуется (русский)
Субтитры: английские (хардсаб)

Видео: Xvid, 720x400 (16:9), ~1430 Kbps
Аудио: AC3, 2 ch, 192 Kbps
Код: Выделить всё
Общее
Полное имя                               : D:\Экстрим (2019).by.Алехаndr.avi
Формат                                   : AVI
Формат/Информация                        : Audio Video Interleave
Размер файла                             : 292 Мбайт
Продолжительность                        : 24 м. 58 с.
Общий поток                              : 1633 Кбит/сек
Программа кодирования                    : Lavf58.20.100

Видео
Идентификатор                            : 0
Формат                                   : MPEG-4 Visual
Профиль формата                          : Advanced Simple@L5
Настройки формата                        : BVOP2
Параметр BVOP формата                    : 2
Параметр QPel формата                    : Нет
Параметр GMC формата                     : Без точки перехода
Параметр матрицы формата                 : Default (H.263)
Идентификатор кодека                     : XVID
Идентификатор кодека/Подсказка           : XviD
Продолжительность                        : 24 м. 58 с.
Битрейт                                  : 1431 Кбит/сек
Ширина                                   : 720 пикселей
Высота                                   : 400 пикселей
Соотношение сторон                       : 16:9
Частота кадров                           : 24,000 кадра/сек
Цветовое пространство                    : YUV
Субдискретизация насыщенности            : 4:2:0
Битовая глубина                          : 8 бит
Тип развёртки                            : Прогрессивная
Метод сжатия                             : С потерями
Бит/(Пиксели*Кадры)                      : 0.207
Размер потока                            : 256 Мбайт (88%)
Библиотека кодирования                   : XviD 67

Аудио
Идентификатор                            : 1
Формат                                   : AC-3
Формат/Информация                        : Audio Coding 3
Коммерческое название                    : Dolby Digital
Идентификатор кодека                     : 2000
Продолжительность                        : 24 м. 58 с.
Вид битрейта                             : Постоянный
Битрейт                                  : 192 Кбит/сек
Каналы                                   : 2 канала
ChannelLayout                            : L R
Частота                                  : 48,0 КГц
Частота кадров                           : 31,250 кадров/сек (1536 SPF)
Битовая глубина                          : 16 бит
Метод сжатия                             : С потерями
Размер потока                            : 34,3 Мбайт (12%)
Выравнивание                             : Соединение по промежуткам
Продолжительность промежутка             : 32  мс. (0,77 видеокадр)
ServiceKind/String                       : Complete Main

Скриншоты:


Время раздачи: 24/7 (круглосуточно) (до появления первых 3-5 скачавших)
Не забывайте говорить Спасибо. Не уходите с раздачи!   
Торрент: Зарегистрирован [13 авг 2019, 13:01]
Статус:
Проверен
 
.torrent скачан: 0 раз
Хэш: 697f895429c6a4a564071486e42560b60a01012c
Размер: 291.8 МБ (305 977 910 байт)
   Стать Автором раздачи
   
Цитата
  • Похожие торренты
    Ответы
    Просмотры
    Последнее сообщение

Вернуться в Наше кино (Rips)

Кто сейчас на конференции

Сейчас эту тему просматривают: нет зарегистрированных пользователей и гости: 1