Сильная слабая женщина [01-14 из 14] (2019) HDTVRip от GeneralFilm

 Статистика раздачи 
Размер: 7.62 ГБ   |  Зарегистрирован: 02 окт 2019, 18:45   |   .torrent скачан: 34 раз
Сидеров: 25  [ 0 байт/сек ]     Личеров: 73  [ 0 байт/сек ]  
  
Аватара пользователя
 
Раздал: 2.69 ТБ
Скачал: 89.59 ГБ
Ратио: 30.758
Сообщения: 215301
Стаж: 3 года 3 месяца 15 дней

Информация о фильме
Оригинальное название: Сильная слабая женщина
Год выпуска: 2019
Жанр: Мелодрама
Выпущено: Россия, «Киностудия КИТ»
Режиссер: Екатерина Двигубская
В ролях: Александра Власова, Сергей Перегудов, Дмитрий Власкин, Александр Константинов, Ольга Кабо, Владимир Гостюхин, Наталья Аринбасарова, Зоя Антонова, Татьяна Яхина, Святослав Астрамович, Юлианна Михневич, Андрей Карако, Андрей Шарков, Артём Курень, Андрей Сенькин (II), Евгения Осипова, Дмитрий Егоров (III), Андрей Давидюк, Игорь Сигов, Олег Ткачёв, Тамара Миронова, Елена Побегаева, Елена Барсукова (II), Наталья Холодович, Анна Ницкая, Виктор Васильев (II), Василий Козлов (II), Алексей Шутов, Ольга Дятловская, Дмитрий Есеневич, Александр Одинец

О фильме: Весна 1989 года, провинциальный город Казимов. Нина Голубева заканчивает школу с медалью и мечтает стать модельером. Первая серьезная влюбленность оборачивается для неё беременностью и одиночеством. Нина переезжает в неприветливую Москву в трудное для страны время.Некогда наивная и романтичная, теперь Нина полагается только на себя и не может себе позволить быть слабой. В её жизни ещё будут признание и успех.

Качество: HDTVRip
Видео: XviD build 73, 720x400 (16:9), 25.000 fps, ~ 1250 Kbps (~ 0.175 bit/pixel)
Аудио: 48.0 kHz, AC3, 2/0 ch, 192 kbps
Продолжительность: 14 х ~ 00:52:00
Перевод: Не требуется [Русский]
Cубтитры: нет

General
Complete name : D:RazdachiSiljnaja.Slabaja.Zhenshina.2019.HDTVRip.GeneralFilmSiljnaja.Slabaja.Zhenshina.e01.avi
Format : AVI
Format/Info : Audio Video Interleave
File size : 557 MiB
Duration : 52 min 52 s
Overall bit rate : 1 474 kb/s
Writing application : VirtualDubMod 1.5.10.3 | www.virtualdub-fr.org || (build 2550/release)
Writing library : VirtualDubMod build 2550/release

Video
ID : 0
Format : MPEG-4 Visual
Format profile : Advanced Simple@L5
Format settings : BVOP1 / Custom Matrix
Format settings, BVOP : 1
Format settings, QPel : No
Format settings, GMC : No warppoints
Format settings, Matrix : Custom
Codec ID : XVID
Codec ID/Hint : XviD
Duration : 52 min 52 s
Bit rate : 1 272 kb/s
Width : 720 pixels
Height : 400 pixels
Display aspect ratio : 16:9
Frame rate : 25.000 FPS
Color space : YUV
Chroma subsampling : 4:2:0
Bit depth : 8 bits
Scan type : Progressive
Compression mode : Lossy
Bits/(Pixel*Frame) : 0.177
Stream size : 481 MiB (86%)
Writing library : XviD 73

Audio
ID : 1
Format : AC-3
Format/Info : Audio Coding 3
Commercial name : Dolby Digital
Codec ID : 2000
Duration : 52 min 52 s
Bit rate mode : Constant
Bit rate : 192 kb/s
Channel(s) : 2 channels
Channel layout : L R
Sampling rate : 48.0 kHz
Frame rate : 31.250 FPS (1536 SPF)
Bit depth : 16 bits
Compression mode : Lossy
Stream size : 72.6 MiB (13%)
Alignment : Split accross interleaves
Interleave, duration : 40 ms (1.00 video frame)
Interleave, preload duratio : 500 ms
Service kind : Complete Main

Релиз от:
Не забывайте говорить Спасибо. Не уходите с раздачи!   
Торрент: Зарегистрирован [02 окт 2019, 18:45]
Статус:
Проверен
 
.torrent скачан: 34 раз
Хэш: 49cab7b64b6671e26666c7499d2c24eb0ff7b7de
Размер: 7.62 ГБ (8 183 920 640 байт)
   Стать Автором раздачи
   
Ничто так не успокаивает, как инструктаж по технике безопасности.
Цитата

Вернуться в Отечественные сериалы

Кто сейчас на конференции

Сейчас эту тему просматривают: нет зарегистрированных пользователей и гости: 1