Уловки Норбита / Norbit (2007) BDRip-HEVC 1080p от NoMaD | D

 Статистика раздачи 
Размер: 6.19 ГБ   |  Зарегистрирован: 22 сен 2019, 13:43   |   .torrent скачан: 142 раз
Сидеров: 30  [ 0 байт/сек ]     Личеров: 12  [ 0 байт/сек ]  
  
Аватара пользователя
Я на сайте
 
Раздал: 6.42 ТБ
Скачал: 483.69 ГБ
Ратио: 13.589
Сообщения: 243366
Стаж: 2 года 6 месяцев 24 дня

Название: Уловки Норбита
Оригинальное название: Norbit
Год выхода: 2007
Производство: США / DreamWorks Pictures
Жанр: Драма, мелодрама, комедия
Продолжительность: 01:42:05

Режиссер: Брайан Роббинс
В ролях: Эдди Мёрфи, Тэнди Ньютон, Терри Крюс, Клифтон Пауэлл, Лестер Спейт, Кьюба Гудинг мл., Эдди Гриффин, Кэт Уильямс, Флойд Левайн, Энтони Расселл, Пэт Кроуфорд Браун, Жанетт Миллер, Майкл Коляр, Марлон Уайанс, Алексис Ри, Хамани Гриффин, Остин Рейд, Линдси Симс-Льюис, Хина Андерсон, Кристен Шааль, Роб Хюбел, Майкл Восслер, Трэвис Восслер, Мэйсон Найт, Джонатан Робинсон, Ив Лола Ст. Виль, Ричард Гант, Сьюзэн Бьюбиан, Джон Гэйтинс, Лаура Ортиз, Майлз Роббинс, Чарльз К. Мёрфи, Хейли Норман, Сара Сэндерсон, Смит Чо, Эстер Фридман, Лонни Хендерсон, Кармен Рохас, Марианн Мюллерлейл, Фрэнк Лэнгли, Дональд Джонсон, Грета Боммельже

Описание: Жизнь Норбита с самого детства была полна испытаний и разочарований. Брошенный родителями у дверей китайского ресторанчика и воспитанный мистером Вонгом, с начальной школы он был обречён ходить в ухажерах монструозной Распутии. Не смея возразить своей защитнице, герой смиренно собирается вести её к алтарю, как в город возвращается любовь всей жизни Норбита, прекрасная Кейт. Теперь ему предстоит как-то избавиться от деспотичной Распутии и завоевать сердце Кейт...

Качество: BDRip-HEVC 1080
Видео: HEVC/H.265, 1920x1080, ~7 621 kb/s, 10 bit
Аудио 1: Русский, AC3, 448 kbps, 6 ch, 48 kHz (Дубляж)
Аудио 2: Английский, AC3, 448 kbps, 6 ch, 48 kHz (Оригинал)

Субтитры: Русские,английские (Full)


General
Unique ID : 320365863785894815013638273333024934600 (0xF1043894EDC84C7EB341A4D19A024AC8)
Complete name : D:DownloadУловки Норбита Norbit (2007).mkv
Format : Matroska
Format version : Version 4
File size : 6.20 GiB
Duration : 1 h 42 min
Overall bit rate : 8 689 kb/s
Movie name : Уловки Норбита / Norbit (2007)
Writing application : XviD4PSP 8.0.86
Writing library : Lavf58.20.100
ErrorDetectionType : Per level 1
Attachments : poster
ENCODING_INFO : JPEG > COPY Быстрое
Language : und

Video
ID : 1
Format : HEVC
Format/Info : High Efficiency Video Coding
Format profile : Main 10@L4.1@High
Codec ID : V_MPEGH/ISO/HEVC
Duration : 1 h 42 min
Bit rate : 7 621 kb/s
Width : 1 920 pixels
Height : 1 080 pixels
Display aspect ratio : 16:9
Frame rate mode : Constant
Frame rate : 23.976 (24000/1001) FPS
Color space : YUV
Chroma subsampling : 4:2:0
Bit depth : 10 bits
Bits/(Pixel*Frame) : 0.153
Stream size : 5.43 GiB (88%)
Title : Norbit
Writing library : x265 3.1+11-de920e0a3183:[Windows][clang 8.0.1][64 bit] 10bit
Encoding settings : cpuid=1111039 / frame-threads=9 / numa-pools=8 / wpp / no-pmode / no-pme / no-psnr / no-ssim / log-level=3 / input-csp=1 / input-res=1920x1080 / interlace=0 / total-frames=0 / level-idc=41 / high-tier=1 / uhd-bd=0 / ref=5 / allow-non-conformance / no-repeat-headers / annexb / aud / no-hrd / info / hash=0 / no-temporal-layers / open-gop / min-keyint=24 / keyint=240 / gop-lookahead=0 / bframes=10 / b-adapt=2 / b-pyramid / bframe-bias=0 / rc-lookahead=25 / lookahead-slices=4 / scenecut=40 / radl=0 / no-splice / no-intra-refresh / ctu=64 / min-cu-size=8 / rect / amp / max-tu-size=32 / tu-inter-depth=4 / tu-intra-depth=4 / limit-tu=0 / rdoq-level=2 / dynamic-rd=0.00 / no-ssim-rd / signhide / no-tskip / nr-intra=0 / nr-inter=0 / no-constrained-intra / strong-intra-smoothing / max-merge=3 / limit-refs=3 / limit-modes / me=3 / subme=7 / merange=57 / temporal-mvp / no-hme / weightp / no-weightb / no-analyze-src-pics / deblock=-3:-3 / no-sao / no-sao-non-deblock / rd=6 / no-early-skip / rskip / no-fast-intra / no-tskip-fast / no-cu-lossless / no-b-intra / no-splitrd-skip / rdpenalty=0 / psy-rd=2.00 / psy-rdoq=1.00 / no-rd-refine / no-lossless / cbqpoffs=0 / crqpoffs=0 / rc=crf / crf=20.0 / qcomp=0.70 / qpstep=4 / stats-write=0 / stats-read=0 / vbv-maxrate=50000 / vbv-bufsize=50000 / vbv-init=0.9 / crf-max=30.0 / crf-min=0.0 / ipratio=1.40 / pbratio=1.30 / aq-mode=2 / aq-strength=0.00 / cutree / zone-count=0 / no-strict-cbr / qg-size=32 / no-rc-grain / qpmax=69 / qpmin=0 / no-const-vbv / sar=1 / overscan=0 / videoformat=5 / range=0 / colorprim=2 / transfer=2 / colormatrix=2 / chromaloc=0 / display-window=0cll=0,0 / min-luma=0 / max-luma=1023 / log2-max-poc-lsb=8 / vui-timing-info / vui-hrd-info / slices=1 / no-opt-qp-pps / no-opt-ref-list-length-pps / no-multi-pass-opt-rps / scenecut-bias=0.05 / no-opt-cu-delta-qp / aq-motion / no-hdr / no-hdr-opt / no-dhdr10-opt / no-idr-recovery-sei / analysis-reuse-level=5 / scale-factor=0 / refine-intra=0 / refine-inter=0 / refine-mv=0 / refine-ctu-distortion=0 / no-limit-sao / ctu-info=0 / no-lowpass-dct / refine-analysis-type=0 / copy-pic=1 / max-ausize-factor=1.0 / no-dynamic-refine / no-single-sei / no-hevc-aq / no-svt / no-field / qp-adaptation-range=1.00
Language : English
Default : Yes
Forced : No
Color range : Limited
ENCODING_INFO : H264 > X265 CRF 20.0 Пользовательский

Audio #1
ID : 2
Format : AC-3
Format/Info : Audio Coding 3
Commercial name : Dolby Digital
Codec ID : A_AC3
Duration : 1 h 42 min
Bit rate mode : Constant
Bit rate : 448 kb/s
Channel(s) : 6 channels
Channel layout : L R C LFE Ls Rs
Sampling rate : 48.0 kHz
Frame rate : 31.250 FPS (1536 SPF)
Bit depth : 16 bits
Compression mode : Lossy
Stream size : 327 MiB (5%)
Title : Дубляж
Language : Russian
Service kind : Complete Main
Default : Yes
Forced : No
ENCODING_INFO : AC3 > AC3 CBR 480kbps

Audio #2
ID : 3
Format : AC-3
Format/Info : Audio Coding 3
Commercial name : Dolby Digital
Codec ID : A_AC3
Duration : 1 h 42 min
Bit rate mode : Constant
Bit rate : 448 kb/s
Channel(s) : 6 channels
Channel layout : L R C LFE Ls Rs
Sampling rate : 48.0 kHz
Frame rate : 31.250 FPS (1536 SPF)
Bit depth : 16 bits
Compression mode : Lossy
Stream size : 327 MiB (5%)
Title : Original
Language : English
Service kind : Complete Main
Default : No
Forced : No
ENCODING_INFO : AC3 > AC3 CBR 480kbps

Text #1
ID : 4
Format : UTF-8
Codec ID : S_TEXT/UTF8
Codec ID/Info : UTF-8 Plain Text
Title : Full
Language : Russian
Default : Yes
Forced : No
ENCODING_INFO : SUBRIP > COPY Быстрое

Text #2
ID : 5
Format : UTF-8
Codec ID : S_TEXT/UTF8
Codec ID/Info : UTF-8 Plain Text
Title : Full
Language : English
Default : No
Forced : No
ENCODING_INFO : SUBRIP > COPY Быстрое

Menu
00:00:00.000 : :Глава 1
00:09:41.873 : :Глава 2
00:18:53.883 : :Глава 3
00:29:24.513 : :Глава 4
00:38:46.991 : :Глава 5
00:48:14.809 : :Глава 6
00:58:08.443 : :Глава 7
01:07:49.899 : :Глава 8
01:18:05.431 : :Глава 9
01:27:45.510 : :Глава 10
01:37:14.162 : :Глава 11











Релиз от: NoMaD
Не забывайте говорить Спасибо. Не уходите с раздачи!   
Торрент: Зарегистрирован [22 сен 2019, 13:43]
Статус:
Проверен
 
.torrent скачан: 142 раз
Хэш: 0f322392afa3c610816e62b184be88edf440e8fe
Размер: 6.19 ГБ (6 650 765 077 байт)
   Стать Автором раздачи
   
Цитата
  • Похожие торренты
    Ответы
    Просмотры
    Последнее сообщение

Вернуться в Зарубежное кино (HD Video)

Кто сейчас на конференции

Сейчас эту тему просматривают: нет зарегистрированных пользователей и гости: 0