Древности Новой Зеландии / What's Old in Nev Zealand (2012) HDTV [H.264/1080i] [hand made 50fps]

 Статистика раздачи 
Размер: 3.67 ГБ   |  Зарегистрирован: 24 авг 2019, 11:15   |   .torrent скачан: 1 раз
Сидеров: 4  [ 0 байт/сек ]     Личеров: 0  [ 0 байт/сек ]  
  
Аватара пользователя
Я на сайте
 
Раздал: 6.4 ТБ
Скачал: 483.58 ГБ
Ратио: 13.556
Сообщения: 243114
Стаж: 2 года 6 месяцев 22 дня

Древности Новой Зеландии / What's Old in Nev Zealand (2012) HDTV [H.264/1080i]

Производство: Корея, EBS
Жанр: Документальный, природа, флора, фауна

Режиссер: Жен-хо

Описание:
Новая Зеландия отделилась от Гондваны раньше Австралии, ещё в меловом периоде, и её уникальная фауна самая древняя в мире. На этом горном архипелаге, покрытом лесами, с вулканами и гейзерами, до появления человека совсем не было млекопитающих, не считая двух видов летучих мышей. Поэтому экологическую нишу травоядных копытных занимали мирные нелетающие птицы моа, родственники киви, напоминающие страусов с мощными ногами. Существовало не менее 20 видов моа, и только некоторые из них дожили до XIX века. Мелкие моа были размером с индюка, а рост некоторых крупных достигал 3,5 м при массе 300–400 кг! Моа быстро не бегали: до появления человека бегать им было не от кого. Наземных хищников не имелось вовсе, только пернатые, а вершину пищевой пирамиды занимал орёл Хааса. По ископаемым останкам скелетов учёные вычислили размеры и примерный вес этих птиц. Оказалось, что это самый крупный и тяжёлый из современных орлов, больше беркута и белохвоста, масса которых не превышает 7 кг. Размах крыльев орла Хааса достигал 2,1–2,4 м; масса самцов – 10 кг, а самок – 14,5 кг!

Релиз от: RG Doc.Films
Продолжительность: 00:44:22
Качество видео: HDTV
Перевод: Одноголосый закадровый, профессиональный (ТПО Ред Медиа)
Субтитры: отсутствуют

Видео: AVC/H.264, 1920x1080, ~11,7 Mbps, 50fps
Аудио: AC3, 2 ch, 192 Kbps
Код: Выделить всё
Общее
Уникальный идентификатор                 : 138757609821167041753648751688025282560 (0x6863BE5B098AF6653A89EF256BF29800)
Полное имя                               : F:\КИНО\Древности.Новой.Зеландии.mkv
Формат                                   : Matroska
Версия формата                           : Version 4
Размер файла                             : 3,67 Гбайт
Продолжительность                        : 44 м. 22 с.
Общий поток                              : 11,9 Мбит/сек
Дата кодирования                         : UTC 2019-08-24 07:02:19
Программа кодирования                    : mkvmerge v36.0.0 ('Is That Jazz?') 64-bit
Библиотека кодирования                   : libebml v1.3.9 + libmatroska v1.5.2

Видео
Идентификатор                            : 2
Формат                                   : AVC
Формат/Информация                        : Advanced Video Codec
Профиль формата                          : High@L4
Настройки формата                        : CABAC / 3 Ref Frames
Параметр CABAC формата                   : Да
Параметр RefFrames формата               : 3 кадра
Идентификатор кодека                     : V_MPEG4/ISO/AVC
Продолжительность                        : 44 м. 22 с.
Битрейт                                  : 11,7 Мбит/сек
Ширина                                   : 1920 пикселей
Высота                                   : 1080 пикселей
Соотношение сторон                       : 16:9
Режим частоты кадров                     : Переменный
Частота кадров                           : 50,000 кадров/сек
Частота кадров в оригинале               : 25,000 кадров/сек
Стандарт вещания                         : Component
Цветовое пространство                    : YUV
Субдискретизация насыщенности            : 4:2:0
Битовая глубина                          : 8 бит
Тип развёртки                            : Чересстрочная
Метод сохранения типа развёртки          : Раздельные поля
Порядок развёртки                        : Верхнее поле первое
Бит/(Пиксели*Кадры)                      : 0.112
Размер потока                            : 3,61 Гбайт (98%)
Default                                  : Да
Forced                                   : Нет
Цветовой диапазон                        : Limited
Основные цвета                           : BT.709
Характеристики трансфера                 : BT.709
Коэффициенты матрицы                     : BT.709

Аудио
Идентификатор                            : 1
Формат                                   : AC-3
Формат/Информация                        : Audio Coding 3
Коммерческое название                    : Dolby Digital
Идентификатор кодека                     : A_AC3
Продолжительность                        : 44 м. 22 с.
Вид битрейта                             : Постоянный
Битрейт                                  : 192 Кбит/сек
Каналы                                   : 2 канала
ChannelLayout                            : L R
Частота                                  : 48,0 КГц
Частота кадров                           : 31,250 кадров/сек (1536 SPF)
Битовая глубина                          : 16 бит
Метод сжатия                             : С потерями
Размер потока                            : 60,9 Мбайт (2%)
ServiceKind/String                       : Complete Main
Default                                  : Да
Forced                                   : Нет

Скриншоты:




Время раздачи: с 18:00 до 23:00 (до появления первых 3-5 скачавших)
Не забывайте говорить Спасибо. Не уходите с раздачи!   
Торрент: Зарегистрирован [24 авг 2019, 11:15]
Статус:
Проверен
 
.torrent скачан: 1 раз
Хэш: ebe1a530dde2393ef495ab3f6faff4f9ce54de21
Размер: 3.67 ГБ (3 945 931 390 байт)
   Стать Автором раздачи
   
Цитата

Вернуться в Флора и фауна

Кто сейчас на конференции

Сейчас эту тему просматривают: нет зарегистрированных пользователей и гости: 1