Смертельное оружие / Lethal Weapon [S03] (2018) WEBRip 720p | OmskBird

 Статистика раздачи 
Размер: 14.6 ГБ   |  Зарегистрирован: 01 мар 2019, 17:18   |   .torrent скачан: 0 раз
Сидеров: 0  [ 0 байт/сек ]     Личеров: 0  [ 0 байт/сек ]  
  
Аватара пользователя
Главный редактор
Главный редактор
 
Раздал: 90.01 ТБ
Скачал: 3.78 ТБ
Ратио: 24.248
Сообщения: 254682
Стаж: 9 лет 22 дня
Откуда: Санкт-Петербург

Информация о фильме
Название: Смертельное Оружие
Оригинальное название: Lethal Weapon
Год выхода: 2018
Жанр: боевик, триллер, драма, криминал
Режиссер: Стив Бойум, МакДжи
В ролях: Шонн Уильям Скотт, Чарльз Бэйкер, Дэймон Уайанс ст., Джордана Брюстер, Данте Браун, Рауль Бустаманте, Питер Кортес, Клейн Кроуфорд, Джонатан Фернандес и другие.

О фильме:
Новый сериал, в основу которого лег одноименный фильм с Мэлом Гибсоном в главной роли. Сюжет построен вокруг копа из Техаса Мартине Риггсе (Клэйн Кроуфорд), беременная жена которого погибла в автокатастрофе. Страдающего от проблем с алкоголем и самоконтролем Риггса переводят в новый участок, где его напарником становится примерный семьянин Роджер Мерто (Дэймон Уайнс), недавно переживший сердечный удар и собирающийся на пенсию. По слухам, сценаристы пытались передать дух культового фильма, наделив обоих героев характерами их прототипов.


Страна: США
Продолжительность: ~ 00:44:00 серия
Перевод: Любительский (многоголосый закадровый) OmskBird

Файл
Кодек: MPEG-4 AVC/H.264
Качество: WEBRip 720p
Видео: ~2900 Кбит/сек, 1280x720 (1.778), 23.976 кадр/сек
Звук:
Аудио rus: AC-3, 2 ch, 48,0 КГц, 192 Кбит/сек - OmskBird
Субтитры: отсутствуют
Реклама: присутствует

Семпл

General
Unique ID : 106679223028580620705819232507321219079 (0x5041ABC725465FBE290063D505397807)
Complete name : G:Lethal.Weapon.S03.720p.WEBRip.OmskBirdLethal.Weapon.S03E01.720p.WEBRip.OmskBird.mkv
Format : Matroska
Format version : Version 4 / Version 2
File size : 1 002 MiB
Duration : 44 min 41 s
Overall bit rate : 3 133 kb/s
Encoded date : UTC 2018-09-27 10:28:47
Writing application : mkvmerge v25.0.0 ('Prog Noir') 64-bit
Writing library : libebml v1.3.6 + libmatroska v1.4.9
Cover : Yes
Attachments : small_cover.jpg / small_cover_land.jpg / cover.jpg / cover_land.jpg

Video
ID : 1
Format : AVC
Format/Info : Advanced Video Codec
Format profile : Main@L4.1
Format settings : CABAC / 3 Ref Frames
Format settings, CABAC : Yes
Format settings, RefFrames : 3 frames
Codec ID : V_MPEG4/ISO/AVC
Duration : 44 min 41 s
Bit rate : 2 939 kb/s
Width : 1 280 pixels
Height : 720 pixels
Display aspect ratio : 16:9
Frame rate mode : Constant
Frame rate : 23.976 (24000/1001) FPS
Standard : NTSC
Color space : YUV
Chroma subsampling : 4:2:0
Bit depth : 8 bits
Scan type : Progressive
Bits/(Pixel*Frame) : 0.133
Stream size : 939 MiB (94%)
Language : English
Default : Yes
Forced : No
Color range : Limited
Color primaries : BT.709
Transfer characteristics : BT.709
Matrix coefficients : BT.709

Audio
ID : 2
Format : AC-3
Format/Info : Audio Coding 3
Codec ID : A_AC3
Duration : 44 min 41 s
Bit rate mode : Constant
Bit rate : 192 kb/s
Channel(s) : 2 channels
Channel positions : Front: L R
Sampling rate : 48.0 kHz
Frame rate : 31.250 FPS (1536 SPF)
Bit depth : 16 bits
Compression mode : Lossy
Stream size : 61.4 MiB (6%)
Title : OmskBird
Language : Russian
Service kind : Complete Main
Default : Yes
Forced : No



Релиз от: OmskBird
Не забывайте говорить Спасибо. Не уходите с раздачи!   
Торрент: Зарегистрирован [01 мар 2019, 17:18]
Статус:
Проверен
 
.torrent скачан: 0 раз
Хэш: 0f8e799d7bf7d5d8881db098db8680ab18df8cbe
Размер: 14.6 ГБ (15 673 651 671 байт)
   Стать Автором раздачи
   
Цитата

Вернуться в Смертельное оружие / Lethal Weapon

Кто сейчас на конференции

Сейчас эту тему просматривают: нет зарегистрированных пользователей и гости: 1