Смертельное оружие / Lethal Weapon [S03] (2018) WEBRip | OmskBird

 Статистика раздачи 
Размер: 9.22 ГБ   |  Зарегистрирован: 01 мар 2019, 17:18   |   .torrent скачан: 0 раз
Сидеров: 0  [ 0 байт/сек ]     Личеров: 0  [ 0 байт/сек ]  
  
Аватара пользователя
Главный редактор
Главный редактор
 
Раздал: 90.01 ТБ
Скачал: 3.78 ТБ
Ратио: 24.248
Сообщения: 254682
Стаж: 9 лет 22 дня
Откуда: Санкт-Петербург

Информация о фильме
Название: Смертельное Оружие
Оригинальное название: Lethal Weapon
Год выхода: 2018
Жанр: боевик, триллер, драма, криминал
Режиссер: Стив Бойум, МакДжи
В ролях: Шонн Уильям Скотт, Чарльз Бэйкер, Дэймон Уайанс ст., Джордана Брюстер, Данте Браун, Рауль Бустаманте, Питер Кортес, Клейн Кроуфорд, Джонатан Фернандес и другие.

О фильме:
Новый сериал, в основу которого лег одноименный фильм с Мэлом Гибсоном в главной роли. Сюжет построен вокруг копа из Техаса Мартине Риггсе (Клэйн Кроуфорд), беременная жена которого погибла в автокатастрофе. Страдающего от проблем с алкоголем и самоконтролем Риггса переводят в новый участок, где его напарником становится примерный семьянин Роджер Мерто (Дэймон Уайнс), недавно переживший сердечный удар и собирающийся на пенсию. По слухам, сценаристы пытались передать дух культового фильма, наделив обоих героев характерами их прототипов.


Страна: США
Продолжительность: ~ 00:44:00 серия
Перевод: Любительский (многоголосый закадровый) OmskBird

Файл
Кодек: XviD
Качество: WEBRip
Видео: 720x400, 23.976 fps, ~1782 kbps, 0.26 bit/pixel
Звук:
Аудио rus: AC-3, 2 ch, 48,0 КГц, 192 Кбит/сек - OmskBird
Субтитры: отсутствуют
Реклама: присутствует

Семпл

General
Complete name : G:Lethal.Weapon.S03.400p.WEBRip.OmskBirdLethal.Weapon.S03E01.WEBRip.OmskBird.avi
Format : AVI
Format/Info : Audio Video Interleave
File size : 634 MiB
Duration : 44 min 41 s
Overall bit rate : 1 984 kb/s
Writing application : VirtualDubMod 1.5.10.3 | www.virtualdub-fr.org || (build 2550/release)
Writing library : VirtualDubMod build 2550/release

Video
ID : 0
Format : MPEG-4 Visual
Format profile : Advanced Simple@L5
Format settings : BVOP1
Format settings, BVOP : 1
Format settings, QPel : No
Format settings, GMC : No warppoints
Format settings, Matrix : Default (MPEG)
Codec ID : XVID
Codec ID/Hint : XviD
Duration : 44 min 41 s
Bit rate : 1 783 kb/s
Width : 720 pixels
Height : 400 pixels
Display aspect ratio : 16:9
Frame rate : 23.976 (24000/1001) FPS
Original frame rate : 23.976 (23976/1000) FPS
Color space : YUV
Chroma subsampling : 4:2:0
Bit depth : 8 bits
Scan type : Progressive
Compression mode : Lossy
Bits/(Pixel*Frame) : 0.258
Stream size : 570 MiB (90%)
Writing library : XviD 1.2.1 (UTC 2008-12-04)

Audio
ID : 1
Format : AC-3
Format/Info : Audio Coding 3
Codec ID : 2000
Duration : 44 min 41 s
Bit rate mode : Constant
Bit rate : 192 kb/s
Channel(s) : 2 channels
Channel positions : Front: L R
Sampling rate : 48.0 kHz
Frame rate : 31.250 FPS (1536 SPF)
Bit depth : 16 bits
Compression mode : Lossy
Stream size : 61.4 MiB (10%)
Alignment : Split accross interleaves
Interleave, duration : 42 ms (1.00 video frame)
Interleave, preload duration : 500 ms
Service kind : Complete Main



Релиз от: OmskBird
Не забывайте говорить Спасибо. Не уходите с раздачи!   
Торрент: Зарегистрирован [01 мар 2019, 17:18]
Статус:
Проверен
 
.torrent скачан: 0 раз
Хэш: 0cb6bde35f37ecdf64055436bdfa73be5acccbd0
Размер: 9.22 ГБ (9 901 291 520 байт)
   Стать Автором раздачи
   
Цитата

Вернуться в Смертельное оружие / Lethal Weapon

Кто сейчас на конференции

Сейчас эту тему просматривают: нет зарегистрированных пользователей и гости: 1