Алита: Боевой ангел / Alita: Battle Angel (2019) BDRip [576p] iPad

 Статистика раздачи 
Размер: 2.21 ГБ   |  Зарегистрирован: 19 июл 2019, 15:50   |   .torrent скачан: 0 раз
Сидеров: 8  [ 0 байт/сек ]     Личеров: 1  [ 0 байт/сек ]  
  
Аватара пользователя
 
Раздал: 311.05 МБ
Скачал: 1.9 ГБ
Ратио: 0.160
Сообщения: 252584
Стаж: 9 лет 3 месяца 17 дней
Откуда: Rossiya

Алита: Боевой ангел / Alita: Battle Angel (2019) BDRip [576p] iPad

Производство: США / Twentieth Century Fox, Lightstorm Entertainment
Жанр: Фантастика, боевик, триллер, приключения

Режиссер: Роберт Родригес
Продюсер: Джеймс Кэмерон, Джон Ландау, Дэвид Валдес
Актеры: Роза Салазар, Кристоф Вальц, Дженнифер Коннелли, Махершала Али, Эд Скрейн, Джеки Эрл Хейли, Киан Джонсон, Хорхе Лендеборг мл., Лана Кондор, Идара Виктор

Описание: Действие фильма происходит через 300 лет после Великой войны в XXVI веке. Доктор Идо находит останки женщины-киборга. После починки киборг ничего не помнит, но обнаруживает, что в состоянии пользоваться боевыми приемами киборгов. Начинаются поиски утерянных воспоминаний.

https://www.imdb.com/title/tt0437086/?ref_=plg_rt_1
Возраст: 16+ Зрителям, достигшим 16 лет
Рейтинг MPAA: PG-13 Детям до 13 просмотр не желателен
Дата мировой премьеры: 5 февраля 2019
Дата российской премьеры: 14 февраля 2019, «Двадцатый Век Фокс СНГ»
Цифровой релиз: 12 июля 2019, «Двадцатый Век Фокс СНГ»

Релиз от: Kosatka

Продолжительность: 02:01:57
Качество видео: BDRip 576p
Перевод: Дублированный (Лицензия)
Субтитры: Русские BD CEE (Forced+Full), Русские (FOCS), Украинские BD CEE (Forced+Full), Английские (Full+SDH)

Видео: AVC/H.264, 1024x432, 2 200 Kbps, 23.976 fps
Аудио 1: AAC, 2.0 ch, 128 Kbps | Русский DUB (BluRay EUR)
Аудио 2: AAC, 2.0 ch, 128 Kbps | Украинский DUB (BluRay EUR)
Аудио 3: AAC, 2.0 ch, 128 Kbps | Английский
Код: Выделить всё
Sort Name: Alita: Battle Angel
XID: Apple:vendor_id:2019-88173
contentID: 1451012705
Copyright: © 2019 Twentieth Century Fox Film Corporation. All rights reserved.
Screenwriters: Джеймс Кэмерон, Лаэта Калогридис, Юкито Кисиро
Producers: Джеймс Кэмерон, Джон Ландау, Дэвид Валдес
Director: Роберт Родригес
Cast: Роза Салазар, Кристоф Вальц, Дженнифер Коннелли, Махершала Али, Эд Скрейн, Джеки Эрл Хейли, Кин Джонсон, Хорхе Лендеборг мл., Лана Кондор, Идара Виктор
Studio: 20th Century Fox
Rating: 4
Long Description: Действие фильма происходит через 300 лет после Великой войны в XXVI веке. Доктор Идо находит останки женщины-киборга. После починки киборг ничего не помнит, но обнаруживает, что в состоянии пользоваться боевыми приемами киборгов. Начинаются поиски утерянных воспоминаний.
Description: Действие фильма происходит через 300 лет после Великой войны в XXVI веке. Доктор Идо находит останки женщины-киборга. После починки киборг ничего не помнит, но обнаруживает, что в состоянии пользоваться боевыми приемами киборгов. Начинаются поиски утерянных воспоминаний.
Release Date:  2019-02-14T08:00:00Z
Genre: Action & Adventure
Artist: Robert Rodriguez
Name: Alita: Battle Angel

Код: Выделить всё
General
Complete name                            : /Users/imac/HandBrake/Alita.Battle.Angel.(SD).(pk).m4v
Format                                   : MPEG-4
Codec ID                                 : M4V  (M4V /M4A /mp42/isom)
File size                                : 2.21 GiB
Duration                                 : 2h 1mn
Overall bit rate mode                    : Variable
Overall bit rate                         : 2 591 Kbps
Movie name                               : Alita: Battle Angel
Performer                                : Robert Rodriguez
Director                                 : Роберт Родригес
Actor                                    : Роза Салазар / Кристоф Вальц / Дженнифер Коннелли / Махершала Али / Эд Скрейн / Джеки Эрл Хейли / Кин Джонсон / Хорхе Лендеборг мл. / Лана Кондор / Идара Виктор
Screenplay by                            : Джеймс Кэмерон / Лаэта Калогридис / Юкито Кисиро
Producer                                 : Джеймс Кэмерон / Джон Ландау / Дэвид Валдес
Production studio                        : 20th Century Fox
Genre                                    : Action & Adventure
ContentType                              : Short Film
Description                              : Действие фильма происходит через 300 лет после Великой войны в XXVI веке. Доктор Идо находит останки женщины-киборга. После починки киборг ничего не помнит, но обнаруживает, что в состоянии пользоваться боевыми приемами киборгов. Начинаются поиски утерянных воспоминаний.
Recorded date                            :  2019-02-14T08:00:00Z
Encoded date                             : UTC 2019-07-19 11:27:43
Tagged date                              : UTC 2019-07-19 11:30:14
Copyright                                : © 2019 Twentieth Century Fox Film Corporation. All rights reserved.
Cover                                    : Yes
Rating                                   : None
Title/Sort                               : Alita: Battle Angel
LongDescription                          : Действие фильма происходит через 300 лет после Великой войны в XXVI веке. Доктор Идо находит останки женщины-киборга. После починки киборг ничего не помнит, но обнаруживает, что в состоянии пользоваться боевыми приемами киборгов. Начинаются поиски утерянных воспоминаний.
AppleStoreCatalogID                      : 1451012705
Vendor                                   : Apple:vendor_id:2019-88173
ContentRating                            : mpaa|PG-13|300|

Video #1
ID                                       : 1
Format                                   : AVC
Format/Info                              : Advanced Video Codec
Format profile                           : [url=http://nnmclub.to/mailto:High@L3.1]High@L3.1[/url]
Format settings                          : CABAC / 9 Ref Frames
Format settings, CABAC                   : Yes
Format settings, ReFrames                : 9 frames
Codec ID                                 : avc1
Codec ID/Info                            : Advanced Video Coding
Duration                                 : 2h 1mn
Bit rate                                 : 2 200 Kbps
Width                                    : 1 024 pixels
Height                                   : 432 pixels
Display aspect ratio                     : 2.40:1
Frame rate mode                          : Variable
Frame rate                               : 23.976 (24000/1001) fps
Minimum frame rate                       : 23.974 fps
Maximum frame rate                       : 23.981 fps
Color space                              : YUV
Chroma subsampling                       : 4:2:0
Bit depth                                : 8 bits
Scan type                                : Progressive
Bits/(Pixel*Frame)                       : 0.207
Stream size                              : 1.87 GiB (85%)
Title                                    : Main Program
Writing library                          : x264 core 157 r2935 545de2f
Encoding settings                        : cabac=1 / ref=9 / deblock=1:0:0 / analyse=0x3:0x113 / me=umh / subme=9 / psy=1 / psy_rd=1.00:0.00 / mixed_ref=1 / me_range=32 / chroma_me=1 / trellis=1 / 8x8dct=1 / cqm=0 / deadzone=21,11 / fast_pskip=1 / chroma_qp_offset=-2 / threads=13 / lookahead_threads=1 / sliced_threads=0 / nr=0 / decimate=1 / interlaced=0 / bluray_compat=0 / constrained_intra=0 / bframes=6 / b_pyramid=2 / b_adapt=2 / b_bias=0 / direct=1 / weightb=1 / open_gop=0 / weightp=2 / keyint=240 / keyint_min=24 / scenecut=40 / intra_refresh=0 / rc_lookahead=40 / rc=2pass / mbtree=1 / bitrate=2200 / ratetol=1.0 / qcomp=0.60 / qpmin=0 / qpmax=69 / qpstep=4 / cplxblur=20.0 / qblur=0.5 / ip_ratio=1.40 / aq=1:1.00
Language                                 : English
Encoded date                             : UTC 2019-07-19 11:27:43
Tagged date                              : UTC 2019-07-19 11:27:52
Color range                              : Limited
Color primaries                          : BT.709
Transfer characteristics                 : BT.709
Matrix coefficients                      : BT.709
Menus                                    : 12,13
Codec configuration box                  : avcC

Video #2
ID                                       : 13
Format                                   : JPEG
Codec ID                                 : jpeg
Duration                                 : 2h 1mn
Bit rate mode                            : Variable
Bit rate                                 : 1 849 bps
Width                                    : 640 pixels
Height                                   : 270 pixels
Display aspect ratio                     : 2.40:1
Frame rate mode                          : Variable
Frame rate                               : 0.005 fps
Minimum frame rate                       : 0.003 fps
Maximum frame rate                       : 0.009 fps
Color space                              : YUV
Chroma subsampling                       : 4:2:0
Bit depth                                : 8 bits
Compression mode                         : Lossy
Bits/(Pixel*Frame)                       : 2.140
Stream size                              : 1.59 MiB (0%)
Title                                    : Chapter Images
Language                                 : English
Default                                  : No
Encoded date                             : UTC 2019-07-19 11:28:04
Tagged date                              : UTC 2019-07-19 11:28:04
Menu For                                 : 1
ColorSpace_ICC                           : RGB

Audio #1
ID                                       : 2
Format                                   : AAC LC
Format/Info                              : Advanced Audio Codec Low Complexity
Codec ID                                 : mp4a-40-2
Duration                                 : 2h 1mn
Source duration                          : 2h 1mn
Bit rate mode                            : Variable
Bit rate                                 : 126 Kbps
Maximum bit rate                         : 184 Kbps
Channel(s)                               : 2 channels
Channel layout                           : L R
Sampling rate                            : 48.0 KHz
Frame rate                               : 46.875 fps (1024 SPF)
Compression mode                         : Lossy
Stream size                              : 110 MiB (5%)
Source stream size                       : 110 MiB (5%)
Title                                    : Russian Stereo
Language                                 : Russian
Default                                  : Yes
Alternate group                          : 1
Encoded date                             : UTC 2019-07-19 11:27:43
Tagged date                              : UTC 2019-07-19 11:27:55
Subtitles                                : 5,7,8

Audio #2
ID                                       : 3
Format                                   : AAC LC
Format/Info                              : Advanced Audio Codec Low Complexity
Codec ID                                 : mp4a-40-2
Duration                                 : 2h 1mn
Source duration                          : 2h 1mn
Bit rate mode                            : Variable
Bit rate                                 : 126 Kbps
Maximum bit rate                         : 188 Kbps
Channel(s)                               : 2 channels
Channel layout                           : L R
Sampling rate                            : 48.0 KHz
Frame rate                               : 46.875 fps (1024 SPF)
Compression mode                         : Lossy
Stream size                              : 110 MiB (5%)
Source stream size                       : 110 MiB (5%)
Title                                    : Ukrainian Stereo
Language                                 : Ukrainian
Default                                  : No
Alternate group                          : 1
Encoded date                             : UTC 2019-07-19 11:27:43
Tagged date                              : UTC 2019-07-19 11:27:55
Subtitles                                : 6,9

Audio #3
ID                                       : 4
Format                                   : AAC LC
Format/Info                              : Advanced Audio Codec Low Complexity
Codec ID                                 : mp4a-40-2
Duration                                 : 2h 1mn
Source duration                          : 2h 1mn
Bit rate mode                            : Variable
Bit rate                                 : 126 Kbps
Maximum bit rate                         : 182 Kbps
Channel(s)                               : 2 channels
Channel layout                           : L R
Sampling rate                            : 48.0 KHz
Frame rate                               : 46.875 fps (1024 SPF)
Compression mode                         : Lossy
Stream size                              : 110 MiB (5%)
Source stream size                       : 110 MiB (5%)
Title                                    : English Stereo
Language                                 : English
Default                                  : No
Alternate group                          : 1
Encoded date                             : UTC 2019-07-19 11:27:43
Tagged date                              : UTC 2019-07-19 11:27:55

Text #1
ID                                       : 5
Format                                   : Timed Text
Muxing mode                              : sbtl
Codec ID                                 : tx3g
Title                                    : Russian forced
Language                                 : Russian
Default                                  : Yes
Forced                                   : Yes
Alternate group                          : 2
Encoded date                             : UTC 2019-07-19 11:27:44
Tagged date                              : UTC 2019-07-19 11:27:44
Subtitles For                            : 2
Full Alternative                         : 7,8

Text #2
ID                                       : 6
Format                                   : Timed Text
Muxing mode                              : sbtl
Codec ID                                 : tx3g
Duration                                 : 41mn 13s
Bit rate mode                            : Variable
Bit rate                                 : 0 bps
Stream size                              : 124 Bytes (0%)
Title                                    : Ukrainian forced
Language                                 : Ukrainian
Default                                  : No
Forced                                   : Yes
Alternate group                          : 2
Encoded date                             : UTC 2019-07-19 11:27:44
Tagged date                              : UTC 2019-07-19 11:27:44
Subtitles For                            : 3
Full Alternative                         : 9

Text #3
ID                                       : 7
Format                                   : Timed Text
Muxing mode                              : sbtl
Codec ID                                 : tx3g
Duration                                 : 1h 56mn
Bit rate mode                            : Variable
Bit rate                                 : 67 bps
Stream size                              : 57.4 KiB (0%)
Title                                    : Russian BD CEE
Language                                 : Russian
Default                                  : No
Forced                                   : No
Alternate group                          : 2
Encoded date                             : UTC 2019-07-19 11:27:44
Tagged date                              : UTC 2019-07-19 11:27:49
Subtitles For                            : 2
Forced Alternative                       : 5

Text #4
ID                                       : 8
Format                                   : Timed Text
Muxing mode                              : sbtl
Codec ID                                 : tx3g
Duration                                 : 1h 56mn
Bit rate mode                            : Variable
Bit rate                                 : 72 bps
Stream size                              : 61.2 KiB (0%)
Title                                    : Russian FOCS
Language                                 : Russian
Default                                  : No
Forced                                   : No
Alternate group                          : 2
Encoded date                             : UTC 2019-07-19 11:27:44
Tagged date                              : UTC 2019-07-19 11:27:49
Subtitles For                            : 2
Forced Alternative                       : 5

Text #5
ID                                       : 9
Format                                   : Timed Text
Muxing mode                              : sbtl
Codec ID                                 : tx3g
Duration                                 : 1h 56mn
Bit rate mode                            : Variable
Bit rate                                 : 70 bps
Stream size                              : 59.6 KiB (0%)
Title                                    : Ukrainian BD CEE
Language                                 : Ukrainian
Default                                  : No
Forced                                   : No
Alternate group                          : 2
Encoded date                             : UTC 2019-07-19 11:27:44
Tagged date                              : UTC 2019-07-19 11:27:49
Subtitles For                            : 3
Forced Alternative                       : 6

Text #6
ID                                       : 10
Format                                   : Timed Text
Muxing mode                              : sbtl
Codec ID                                 : tx3g
Duration                                 : 1h 55mn
Bit rate mode                            : Variable
Bit rate                                 : 48 bps
Stream size                              : 40.8 KiB (0%)
Title                                    : English full
Language                                 : English
Default                                  : No
Forced                                   : No
Alternate group                          : 2
Encoded date                             : UTC 2019-07-19 11:27:44
Tagged date                              : UTC 2019-07-19 11:27:49

Text #7
ID                                       : 11
Format                                   : Timed Text
Muxing mode                              : sbtl
Codec ID                                 : tx3g
Duration                                 : 1h 56mn
Bit rate mode                            : Variable
Bit rate                                 : 54 bps
Stream size                              : 46.6 KiB (0%)
Title                                    : English SDH
Language                                 : English
Default                                  : No
Forced                                   : No
Alternate group                          : 2
Encoded date                             : UTC 2019-07-19 11:27:44
Tagged date                              : UTC 2019-07-19 11:27:49

Menu #1
00:00:00.000                             : Chapter 1
00:03:28.667                             : Chapter 2
00:07:51.680                             : Chapter 3
00:10:07.982                             : Chapter 4
00:13:06.703                             : Chapter 5
00:15:06.739                             : Chapter 6
00:18:04.542                             : Chapter 7
00:22:58.711                             : Chapter 8
00:25:35.325                             : Chapter 9
00:31:40.899                             : Chapter 10
00:33:29.216                             : Chapter 11
00:36:32.816                             : Chapter 12
00:38:30.892                             : Chapter 13
00:42:05.481                             : Chapter 14
00:45:58.214                             : Chapter 15
00:48:31.450                             : Chapter 16
00:52:57.049                             : Chapter 17
00:55:14.353                             : Chapter 18
01:00:39.761                             : Chapter 19
01:02:56.564                             : Chapter 20
01:05:16.788                             : Chapter 21
01:10:50.496                             : Chapter 22
01:13:37.288                             : Chapter 23
01:16:35.216                             : Chapter 24
01:18:52.228                             : Chapter 25
01:22:48.297                             : Chapter 26
01:24:55.340                             : Chapter 27
01:28:25.217                             : Chapter 28
01:33:18.551                             : Chapter 29
01:36:08.763                             : Chapter 30
01:41:54.692                             : Chapter 31
01:45:23.442                             : Chapter 32
01:48:16.490                             : Chapter 33
01:51:43.655                             : Chapter 34
01:54:43.668                             : Chapter 35
01:56:51.505                             : Chapter 36

Menu #2
ID                                       : 12
Codec ID                                 : text
Duration                                 : 2h 1mn
Language                                 : English
Encoded date                             : UTC 2019-07-19 11:27:55
Tagged date                              : UTC 2019-07-19 11:27:55
Menu For                                 : 1
00:00:00.000                             : Chapter 1
00:03:28.667                             : Chapter 2
00:07:51.680                             : Chapter 3
00:10:07.982                             : Chapter 4
00:13:06.703                             : Chapter 5
00:15:06.739                             : Chapter 6
00:18:04.542                             : Chapter 7
00:22:58.711                             : Chapter 8
00:25:35.325                             : Chapter 9
00:31:40.899                             : Chapter 10
00:33:29.216                             : Chapter 11
00:36:32.816                             : Chapter 12
00:38:30.892                             : Chapter 13
00:42:05.481                             : Chapter 14
00:45:58.214                             : Chapter 15
00:48:31.450                             : Chapter 16
00:52:57.049                             : Chapter 17
00:55:14.353                             : Chapter 18
01:00:39.761                             : Chapter 19
01:02:56.564                             : Chapter 20
01:05:16.788                             : Chapter 21
01:10:50.496                             : Chapter 22
01:13:37.288                             : Chapter 23
01:16:35.216                             : Chapter 24
01:18:52.228                             : Chapter 25
01:22:48.297                             : Chapter 26
01:24:55.340                             : Chapter 27
01:28:25.217                             : Chapter 28
01:33:18.551                             : Chapter 29
01:36:08.763                             : Chapter 30
01:41:54.692                             : Chapter 31
01:45:23.442                             : Chapter 32
01:48:16.490                             : Chapter 33
01:51:43.655                             : Chapter 34
01:54:43.668                             : Chapter 35
01:56:51.505                             : Chapter 36

Код: Выделить всё
x264 [info]: frame I:1977  Avg QP:14.46  size: 83548
x264 [info]: frame P:45438 Avg QP:17.84  size: 23791
x264 [info]: frame B:128025 Avg QP:20.34  size:  5983
x264 [info]: consecutive B-frames:  4.3%  5.1% 11.5% 33.2% 16.8% 23.6%  5.5%
x264 [info]: mb I  I16..4:  7.6% 65.2% 27.2%
x264 [info]: mb P  I16..4:  1.1%  9.3%  3.3%  P16..4: 35.9% 25.4% 16.1%  0.0%  0.0%    skip: 8.9%
x264 [info]: mb B  I16..4:  0.1%  0.9%  0.5%  B16..8: 40.8%  9.0%  3.0%  direct: 3.7%  skip:42.0%  L0:42.0% L1:45.5% BI:12.4%
x264 [info]: 8x8 transform intra:66.0% inter:68.4%
x264 [info]: coded y,uvDC,uvAC intra: 88.6% 88.7% 68.6% inter: 24.7% 23.6% 5.2%
x264 [info]: i16 v,h,dc,p: 21% 19%  7% 53%
x264 [info]: i8 v,h,dc,ddl,ddr,vr,hd,vl,hu:  9% 10%  3% 10% 14% 13% 15% 12% 14%
x264 [info]: i4 v,h,dc,ddl,ddr,vr,hd,vl,hu:  8%  8%  2%  9% 16% 14% 16% 12% 15%
x264 [info]: i8c dc,h,v,p: 41% 23% 18% 18%
x264 [info]: Weighted P-Frames: Y:4.1% UV:2.1%
x264 [info]: ref P L0: 56.6% 13.5% 12.7%  5.2%  3.7%  2.9%  2.3%  1.5%  1.4%  0.1%  0.0%
x264 [info]: ref B L0: 82.3%  8.9%  4.2%  1.7%  1.2%  0.9%  0.6%  0.2%
x264 [info]: ref B L1: 95.5%  4.5%
x264 [info]: kb/s:2199.88


Скриншоты
:


Время раздачи: 24/7 (круглосуточно)

Релиз подготовлен для просмотра на Apple TV, iPad, iPhone, iPod Touch.
Для просмотра данного релиза на компьютере с ОС Windows рекомендуется использовать VLC media player
Не забывайте говорить Спасибо. Не уходите с раздачи!   
Торрент: Зарегистрирован [19 июл 2019, 15:50]
Статус:
Проверен
 
.torrent скачан: 0 раз
Хэш: 2bb4f8a6c3ca2a51260e6c1dd1be71fcbc4752a8
Размер: 2.21 ГБ (2 369 930 040 байт)
   Стать Автором раздачи
   
Цитата

Вернуться в Фильмы для iPod, iPhone, iPad

Кто сейчас на конференции

Сейчас эту тему просматривают: нет зарегистрированных пользователей и гости: 1