Animal Planet: Океанариум / The Aquarium (2019) HDTV [H.264/1080i] (эпизоды 1-4 из 7) (Обновляемая)

 Статистика раздачи 
Размер: 14.28 ГБ   |  Зарегистрирован: 27 июл 2019, 22:24   |   .torrent скачан: 0 раз
Сидеров: 0  [ 0 байт/сек ]     Личеров: 0  [ 0 байт/сек ]  
  
Аватара пользователя
 
Раздал: 6.64 ТБ
Скачал: 597.93 ГБ
Ратио: 11.363
Сообщения: 248710
Стаж: 2 года 8 месяцев 21 день

Океанариум / The Aquarium (2019) HDTV [H.264/1080i] (эпизоды 1-4 из 7)

Производство: США, Copper Pot Pictures, Red Arrow Entertainment Group for Animal Planet
Жанр: Документальный, природа, флора, фауна

Описание:
В центре Атланты можно найти сказочный подводный мир, где обитают тысячи морских животных. Впервые у зрителей есть возможность своими глазами увидеть крупнейший океанариум в Западном полушарии. Узнаем истории животных, для которых этот запасник морской природы стал домом. Здесь нашли прибежище спасённые южноамериканские морские выдры, очковые пингвины, которые находятся под угрозой вымирания, калифорнийские морские львы, скаты и поистине уникальные "жильцы" - китовые акулы. Проследим за рабочими буднями биологов, исследователей и тренеров Океанариума, а также раскроем подробности того, как сложно он устроен и как твердо стоит на защите обитателей моря.

https://www.imdb.com/title/tt9780390/?ref_=plg_rt_1

Релиз от: Zakol
Продолжительность: серии x ~00:44:00
Качество видео: HDTV
Перевод: Двуголосый закадровый, профессиональный
Субтитры: отсутствуют

Видео: AVC/H.264, 1920x1080, ~10,7 Mbps
Аудио#1: MP2, 2 ch, 192 Kbps | Русский
Аудио#2: MP2, 2 ch, 192 Kbps | Английский
Код: Выделить всё
Общее
Идентификатор                            : 1 (0x1)
Полное имя                               : F:\КИНО\Океанариум 1080 (2019)\2 Океанариум.ts
Формат                                   : MPEG-TS
Размер файла                             : 3,57 Гбайт
Продолжительность                        : 44 м. 0 с.
Режим общего битрейта                    : Переменный
Общий поток                              : 11,6 Мбит/сек

Видео
Идентификатор                            : 1026 (0x402)
Идентификатор меню                       : 119 (0x77)
Формат                                   : AVC
Формат/Информация                        : Advanced Video Codec
Профиль формата                          : High@L4
Настройки формата                        : CABAC / 4 Ref Frames
Параметр CABAC формата                   : Да
Параметр RefFrames формата               : 4 кадра
Идентификатор кодека                     : 27
Продолжительность                        : 44 м. 0 с.
Битрейт                                  : 10,7 Мбит/сек
Ширина                                   : 1920 пикселей
Высота                                   : 1080 пикселей
Соотношение сторон                       : 16:9
Частота кадров                           : 25,000 кадров/сек
Стандарт вещания                         : Component
Цветовое пространство                    : YUV
Субдискретизация насыщенности            : 4:2:0
Битовая глубина                          : 8 бит
Тип развёртки                            : Чересстрочная
Метод сохранения типа развёртки          : Раздельные поля
Порядок развёртки                        : Верхнее поле первое
Бит/(Пиксели*Кадры)                      : 0.206
Размер потока                            : 3,28 Гбайт (92%)
Цветовой диапазон                        : Limited
Основные цвета                           : BT.709
Характеристики трансфера                 : BT.709
Коэффициенты матрицы                     : BT.709

Аудио #1
Идентификатор                            : 1027 (0x403)
Идентификатор меню                       : 119 (0x77)
Формат                                   : MPEG Audio
Версия формата                           : Version 1
Профиль формата                          : Layer 2
Идентификатор кодека                     : 3
Продолжительность                        : 44 м. 0 с.
Вид битрейта                             : Постоянный
Битрейт                                  : 192 Кбит/сек
Каналы                                   : 2 канала
Частота                                  : 48,0 КГц
Частота кадров                           : 41,667 кадра/сек (1152 SPF)
Метод сжатия                             : С потерями
Размер потока                            : 60,4 Мбайт (2%)
Язык                                     : Russian

Аудио #2
Идентификатор                            : 1028 (0x404)
Идентификатор меню                       : 119 (0x77)
Формат                                   : MPEG Audio
Версия формата                           : Version 1
Профиль формата                          : Layer 2
Идентификатор кодека                     : 3
Продолжительность                        : 44 м. 0 с.
Вид битрейта                             : Постоянный
Битрейт                                  : 192 Кбит/сек
Каналы                                   : 2 канала
Частота                                  : 48,0 КГц
Частота кадров                           : 41,667 кадра/сек (1152 SPF)
Метод сжатия                             : С потерями
Размер потока                            : 60,4 Мбайт (2%)
Язык                                     : English

Скриншоты:




Время раздачи: с 18:00 до 23:00 (до появления первых 3-5 скачавших)
Не забывайте говорить Спасибо. Не уходите с раздачи!   
Торрент: Зарегистрирован [27 июл 2019, 22:24]
Статус:
Проверен
 
.torrent скачан: 0 раз
Хэш: ddc333e64b2e32b4e2282dcb6b728c0aa5acd793
Размер: 14.28 ГБ (15 337 351 892 байт)
   Стать Автором раздачи
   
Цитата
  • Похожие торренты
    Ответы
    Просмотры
    Последнее сообщение

Вернуться в Animal Planet

Кто сейчас на конференции

Сейчас эту тему просматривают: нет зарегистрированных пользователей и гости: 1