Нуреев. Белый ворон / The White Crow (2019) BDRip-AVC от New-Team | Лицензия

 Статистика раздачи 
Размер: 1.47 ГБ   |  Зарегистрирован: 13 авг 2019, 18:26   |   .torrent скачан: 766 раз
Сидеров: 269  [ 0 байт/сек ]     Личеров: 13  [ 0 байт/сек ]  
  
Аватара пользователя
Главный редактор
Главный редактор
 
Раздал: 86.09 ТБ
Скачал: 3.77 ТБ
Ратио: 23.267
Сообщения: 217911
Стаж: 8 лет 9 месяцев 24 дня
Откуда: Санкт-Петербург

Нуреев. Белый ворон
The White Crow

«Танец к свободе»




Страна: Великобритания, Франция, Сербия
Жанр: драма, биография
Год выпуска: 2019
Продолжительность: 02:07:24

Перевод: Не требуется
Субтитры: русские (форсированные - на английскую и французскую речь)
Оригинальная аудиодорожка: русский / английский / французский

Режиссер: Рэйф Файнс / Ralph Fiennes

В ролях: Олег Ивенко, Рэйф Файнс, Луис Хофманн, Адель Экзаркопулос, Сергей Полунин, Оливье Рабурден, Рафаэль Персонас, Чулпан Хаматова, Зак Эйвери, Мар Содуп

Описание: Фильм рассказывает о биографии легендарного танцовщика Рудольфа Нуреева - от его детских лет в Уфе и до момента гастролей Кировского театра во Франции, когда Нуреев решил просить убежища на Западе.



Релиз:

Автор рипа: stalkerok

Сэмпл

Качество видео: BDRip-AVC | Исходник: The.White.Crow.2018.COMPLETE.BLURAY-COASTER
Формат видео: MKV
Видео кодек: AVC
Аудио кодек: AAC
Видео: AVC, 1425 Кбит/сек, 862x466 (1.85:1), 24 кадр/сек
Аудио: AAC, 224 Кбит/сек, 48 КГц, 5.1 - русский / английский / французский
Навигация по главам: есть


---[Information] [13.08.2019 17:04:11] x264 [info]: frame I:1235 Avg QP:18.90 size: 40926
---[Information] [13.08.2019 17:04:11] x264 [info]: frame P:34382 Avg QP:20.40 size: 14897
---[Information] [13.08.2019 17:04:11] x264 [info]: frame B:147844 Avg QP:21.52 size: 5407

General
Unique ID : 243594930716964314152099912205744497943 (0xB742AD58D796E0D8C046748943C06517)
Complete name : C:tempThe White CrowThe.White.Crow.2019.BDRip.x264.Rus.stalkerok.New-Team.mkv
Format : Matroska
Format version : Version 4 / Version 2
File size : 1.47 GiB
Duration : 2 h 7 min
Overall bit rate : 1 651 kb/s
Movie name : The White Crow (2019) | Rip by stalkerok
Encoded date : UTC 2019-08-13 14:51:50
Writing application : mkvmerge v33.1.0 ('Primrose') 64-bit
Writing library : libebml v1.3.7 + libmatroska v1.5.0

Video
ID : 1
Format : AVC
Format/Info : Advanced Video Codec
Format profile : High@L4.1
Format settings, CABAC : Yes
Format settings, ReFrames : 12 frames
Codec ID : V_MPEG4/ISO/AVC
Duration : 2 h 7 min
Bit rate : 1 426 kb/s
Width : 862 pixels
Height : 466 pixels
Display aspect ratio : 1.85:1
Frame rate mode : Constant
Frame rate : 24.000 FPS
Color space : YUV
Chroma subsampling : 4:2:0
Bit depth : 8 bits
Scan type : Progressive
Bits/(Pixel*Frame) : 0.148
Stream size : 1.27 GiB (86%)
Title : The White Crow (2019) | Rip by stalkerok
Writing library : x264 core 158 r2984+49 6932f4a t_mod_New [0-bit@all X86_64]
Encoding settings : cabac=1 / ref=12 / deblock=1:-2:-1 / analyse=0x3:0x133 / me=umh / subme=11 / psy=1 / fade_compensate=0.00 / psy_rd=1.00:0.00 / mixed_ref=1 / me_range=32 / chroma_me=1 / trellis=2 / 8x8dct=1 / cqm=0 / deadzone=21,11 / fast_pskip=0 / chroma_qp_offset=-2 / threads=12 / lookahead_threads=3 / sliced_threads=0 / nr=0 / decimate=1 / interlaced=0 / bluray_compat=0 / constrained_intra=0 / fgo=0 / bframes=14 / b_pyramid=2 / b_adapt=2 / b_bias=0 / direct=3 / weightb=1 / open_gop=0 / weightp=2 / keyint=240 / keyint_min=23 / scenecut=40 / intra_refresh=0 / rc_lookahead=60 / rc=crf / mbtree=0 / crf=20.9000 / qcomp=0.65 / qpmin=0:0:0 / qpmax=69:69:69 / qpstep=4 / vbv_maxrate=50000 / vbv_bufsize=62500 / crf_max=0.0 / nal_hrd=none / filler=0 / ip_ratio=1.40 / pb_ratio=1.30 / aq=3:0.95 / aq-sensitivity=10.00 / aq-factor=1.00:1.00:1.00 / aq2=0 / aq3=0 / zones=170627,183460,q=34
Default : Yes
Forced : No

Audio
ID : 2
Format : AAC
Format/Info : Advanced Audio Codec
Format profile : LC
Codec ID : A_AAC
Duration : 2 h 7 min
Bit rate : 224 kb/s
Channel(s) : 6 channels
Channel positions : Front: L C R, Side: L R, LFE
Sampling rate : 48.0 kHz
Frame rate : 46.875 FPS (1024 spf)
Compression mode : Lossy
Delay relative to video : 9 ms
Stream size : 204 MiB (14%)
Title : Russian / English / French
Language : Russian
Default : Yes
Forced : No

Text
ID : 3
Format : UTF-8
Codec ID : S_TEXT/UTF8
Codec ID/Info : UTF-8 Plain Text
Duration : 1 h 59 min
Bit rate : 30 b/s
Count of elements : 491
Stream size : 26.7 KiB (0%)
Title : Forced (English / French parts)
Language : Russian
Default : Yes
Forced : No

Menu
00:00:00.000 : :Chapter 01
00:09:11.458 : :Chapter 02
00:20:10.833 : :Chapter 03
00:32:14.166 : :Chapter 04
00:41:56.541 : :Chapter 05
00:53:29.541 : :Chapter 06
01:03:05.166 : :Chapter 07
01:16:09.625 : :Chapter 08
01:22:36.583 : :Chapter 09
01:31:48.375 : :Chapter 10
01:54:54.500 : :Chapter 11
01:58:29.791 : :Chapter 12





Не забывайте говорить Спасибо. Не уходите с раздачи!   
Торрент: Зарегистрирован [13 авг 2019, 18:26]
Статус:
Проверен
 
.torrent скачан: 766 раз
Хэш: e161b4ebd2333429201fbc987eaab4c4b98f1672
Размер: 1.47 ГБ (1 577 932 450 байт)
   Стать Автором раздачи
   
Цитата

Вернуться в Зарубежное кино (HDRip, DVDRip)

Кто сейчас на конференции

Сейчас эту тему просматривают: нет зарегистрированных пользователей и гости: 1