Годзилла 2: Король монстров / Godzilla: King of the Monsters (2019) WEB-DL 720p от Электричка | iTunes

 Статистика раздачи 
Размер: 4.04 ГБ   |  Зарегистрирован: 13 авг 2019, 23:04   |   .torrent скачан: 9193 раз
Сидеров: 966  [ 0 байт/сек ]     Личеров: 202  [ 0 байт/сек ]  
  
Аватара пользователя
Главный редактор
Главный редактор
 
Раздал: 90.01 ТБ
Скачал: 3.78 ТБ
Ратио: 24.248
Сообщения: 274043
Стаж: 9 лет 1 месяц 16 дней
Откуда: Санкт-Петербург

Информация о фильме
Название: Годзилла 2: Король монстров
Оригинальное название: Godzilla: King of the Monsters
Год выхода: 2019
Жанр: фантастика, фэнтези, боевик, приключения
Режиссер: Майкл Догерти
В ролях: Кайл Чандлер, Вера Фармига, Милли Бобби Браун, Кэн Ватанабэ, Цзыи Чжан, Брэдли Уитфорд, Салли Хокинс, Чарльз Дэнс, Томас Миддлдитч, Аиша Хайндс, О`Ши Джексон мл., Дэвид Стрэтэйрн, Энтони Рамос, Элизабет Ладлоу, Джонатан Ховард, Си Си Эйч Паундер, Джо Мортон, Тайлер Крумли, Келли Гарнер

О фильме:
История рассказывает о героических усилиях криптозоологического агентства «Монарх» по сдерживанию гигантских монстров. В этот раз против могучего Годзиллы выступают Мотра, Родан и ультимативный кайдзю - трёхголовый монстр Кинг Гидора. Когда эти древние суперхищники, со временем превратившиеся в полузабытые мифы, восстают снова, чтобы сойтись в схватке, человечеству остаётся отойти в сторонку и постараться не погибнуть.



Страна: США, Япония
Студия: Warner Bros., Legendary Entertainment, Toho Company
Продолжительность: 02:11:35
Перевод: Дубляж [iTunes]

Файл
Качество: WEB-DL 720p
Видео: MPEG-4 AVC, 3924 Kбит/с, 1280x532
Звук: Русский (AC3, 6 ch, 384 Кбит/с)
Субтитры: Русские, украинские


General

Unique ID : 225246914017082265548113068938633065270 (0xA974FA47D609439596318D2D020AB336)

Complete name : D:DownloadsGodzilla2.2019.WEB-DL.720p.ELEKTRI4KA.UNIONGANG.mkv

Format : Matroska

Format version : Version 2

File size : 4.04 GiB

Duration : 2 h 11 min

Overall bit rate : 4 395 kb/s

Movie name : Godzilla2.2019.ELEKTRI4KA.UNIONGANG

Encoded date : UTC 2019-08-13 18:30:44

Writing application : mkvmerge v7.8.0 ('River Man') 32bit built on Apr 3 2015 12:11:22

Writing library : libebml v1.3.1 + libmatroska v1.4.2
Video

ID : 2

Format : AVC

Format/Info : Advanced Video Codec

Format profile : Main@L3.1

Format settings : 2 Ref Frames

Format settings, CABAC : No

Format settings, RefFrames : 2 frames

Codec ID : V_MPEG4/ISO/AVC

Duration : 2 h 11 min

Bit rate : 3 924 kb/s

Width : 1 280 pixels

Height : 532 pixels

Display aspect ratio : 2.40:1

Frame rate mode : Constant

Frame rate : 23.976 (24000/1001) FPS

Color space : YUV

Chroma subsampling : 4:2:0

Bit depth : 8 bits

Scan type : Progressive

Bits/(Pixel*Frame) : 0.240

Stream size : 3.61 GiB (89%)

Language : English

Default : Yes

Forced : No

Color range : Limited

Color primaries : BT.709

Transfer characteristics : BT.709

Matrix coefficients : BT.709
Audio

ID : 1

Format : AC-3

Format/Info : Audio Coding 3

Format settings, Endianness : Big

Codec ID : A_AC3

Duration : 2 h 11 min

Bit rate mode : Constant

Bit rate : 384 kb/s

Channel(s) : 6 channels

Channel positions : Front: L C R, Side: L R, LFE

Sampling rate : 48.0 kHz

Frame rate : 31.250 FPS (1536 SPF)

Bit depth : 16 bits

Compression mode : Lossy

Stream size : 362 MiB (9%)

Language : Russian

Service kind : Complete Main

Default : Yes

Forced : No
Text #1

ID : 3

Format : UTF-8

Codec ID : S_TEXT/UTF8

Codec ID/Info : UTF-8 Plain Text

Language : Russian

Default : Yes

Forced : No
Text #2

ID : 4

Format : UTF-8

Codec ID : S_TEXT/UTF8

Codec ID/Info : UTF-8 Plain Text

Language : Ukrainian

Default : No

Forced : No
Menu

00:00:00.000 : en:1

00:10:52.902 : en:2

00:18:05.834 : en:3

00:30:26.324 : en:4

00:45:17.631 : en:5

00:54:10.038 : en:6

01:05:40.645 : en:7

01:09:30.583 : en:8

01:19:30.307 : en:9

01:30:05.233 : en:10

01:38:35.868 : en:11

01:49:57.883 : en:12

01:59:27.826 : en:13
Не забывайте говорить Спасибо. Не уходите с раздачи!   
Торрент: Зарегистрирован [13 авг 2019, 23:04]
Статус:
Проверен
 
.torrent скачан: 9193 раз
Хэш: cad8d587c5c60a97e1b9f859700b57e81bf137ec
Размер: 4.04 ГБ (4 341 078 482 байт)
   Стать Автором раздачи
   
Цитата

Вернуться в Зарубежное кино (HD Video)

Кто сейчас на конференции

Сейчас эту тему просматривают: нет зарегистрированных пользователей и гости: 0