Годзилла 2: Король монстров / Godzilla: King of the Monsters (2019) WEB-DL 1080p | P

 Статистика раздачи 
Размер: 9.23 ГБ   |  Зарегистрирован: 13 авг 2019, 18:47   |   .torrent скачан: 6436 раз
Сидеров: 1009  [ 0 байт/сек ]     Личеров: 253  [ 0 байт/сек ]  
  
Аватара пользователя
Главный редактор
Главный редактор
 
Раздал: 86.1 ТБ
Скачал: 3.77 ТБ
Ратио: 23.267
Сообщения: 217911
Стаж: 8 лет 9 месяцев 24 дня
Откуда: Санкт-Петербург

Информация о фильме
Название: Годзилла 2: Король монстров
Оригинальное название: Godzilla: King of the Monsters
Год выхода: 2019
Жанр: Фантастика, фэнтези, боевик, приключения
Режиссер: Майкл Догерти
В ролях: Кайл Чандлер, Вера Фармига, Милли Бобби Браун, Кэн Ватанабэ, Цзыи Чжан, Брэдли Уитфорд, Салли Хокинс, Чарльз Дэнс, Томас Миддлдитч, Аиша Хайндс, О`Ши Джексон мл., Дэвид Стрэтэйрн, Энтони Рамос, Элизабет Ладлоу, Джонатан Ховард, Си Си Эйч Паундер, Джо Мортон, Тайлер Крумли, Келли Гарнер

О фильме:
История рассказывает о героических усилиях криптозоологического агентства «Монарх» по сдерживанию гигантских монстров. В этот раз против могучего Годзиллы выступают Мотра, Родан и ультимативный кайдзю - трёхголовый монстр Кинг Гидора. Когда эти древние суперхищники, со временем превратившиеся в полузабытые мифы, восстают снова, чтобы сойтись в схватке, человечеству остаётся отойти в сторонку и постараться не погибнуть.



Страна: США, Япония
Студия: Warner Bros., Legendary Entertainment, Toho Company
Продолжительность: 02:11:39
Перевод: Профессиональный многоголосый | HDRezka Studio

Файл
Кодек: AVC
Качество: WEB-DL 1080p | Godzilla.King.of.the.Monsters.2019.1080p.AMZN.WEB-DL.DDP5.1.H.264-NTG
Видео: MPEG-4 AVC, 9199 Kбит/с, 1920x800, 23.976 кадр/с
Звук: ► Без Рекламы!
Аудио #1: Русский (АС3, 2 ch, 192 Кбит/с, 48.0 KHz) Профессиональный (многоголосый, закадровый) HDRezka Studio
Аудио #2: Английский (E-АС3, 6 ch, 640 Кбит/с, 48.0 KHz)
Субтитры: английские (full, SDH)
Источник: Godzilla.King.of.the.Monsters.2019.1080p.AMZN.WEB-DL.DDP5.1.H.264-NTG
General
Unique ID : 221282480609684352144431478180081818622 (0xA679749F69B42BD8ADC3ED18BC5BDBFE)
Complete name : Godzilla.King.of.the.Monsters.2019.AMZN.WEB-DL.1080p.mkv
Format : Matroska
Format version : Version 4
File size : 9.23 GiB
Duration : 2 h 11 min
Overall bit rate : 10.0 Mb/s
Encoded date : UTC 2019-08-13 15:06:09
Writing application : mkvmerge v7.1.0 ('Good Love') 64bit built on Jul 27 2014 13:06:55
Writing library : libebml v1.3.0 + libmatroska v1.4.1

Video
ID : 1
Format : AVC
Format/Info : Advanced Video Codec
Format profile : High@L4
Format settings : CABAC / 4 Ref Frames
Format settings, CABAC : Yes
Format settings, Reference fra : 4 frames
Codec ID : V_MPEG4/ISO/AVC
Duration : 2 h 11 min
Bit rate mode : Constant
Bit rate : 9 199 kb/s
Nominal bit rate : 10 000 kb/s
Width : 1 920 pixels
Height : 800 pixels
Display aspect ratio : 2.40:1
Frame rate mode : Constant
Frame rate : 23.976 (24000/1001) FPS
Color space : YUV
Chroma subsampling : 4:2:0
Bit depth : 8 bits
Scan type : Progressive
Bits/(Pixel*Frame) : 0.250
Stream size : 8.46 GiB (92%)
Language : English
Default : Yes
Forced : No
Color range : Limited
Color primaries : BT.709
Transfer characteristics : BT.709
Matrix coefficients : BT.709

Audio #1
ID : 2
Format : AC-3
Format/Info : Audio Coding 3
Commercial name : Dolby Digital
Codec ID : A_AC3
Duration : 2 h 11 min
Bit rate mode : Constant
Bit rate : 192 kb/s
Channel(s) : 2 channels
Channel layout : L R
Sampling rate : 48.0 kHz
Frame rate : 31.250 FPS (1536 SPF)
Bit depth : 16 bits
Compression mode : Lossy
Stream size : 181 MiB (2%)
Title : MVO | HDRezka Studio
Language : Russian
Service kind : Complete Main
Default : Yes
Forced : No

Audio #2
ID : 3
Format : E-AC-3
Format/Info : Enhanced AC-3
Commercial name : Dolby Digital Plus
Codec ID : A_EAC3
Duration : 2 h 11 min
Bit rate mode : Constant
Bit rate : 640 kb/s
Channel(s) : 6 channels
Channel layout : L R C LFE Ls Rs
Sampling rate : 48.0 kHz
Frame rate : 31.250 FPS (1536 SPF)
Compression mode : Lossy
Stream size : 603 MiB (6%)
Language : English
Service kind : Complete Main
Default : No
Forced : No

Text #1
ID : 4
Format : UTF-8
Codec ID : S_TEXT/UTF8
Codec ID/Info : UTF-8 Plain Text
Duration : 2 h 10 min
Bit rate : 42 b/s
Count of elements : 1482
Stream size : 40.9 KiB (0%)
Language : English
Default : No
Forced : No

Text #2
ID : 5
Format : UTF-8
Codec ID : S_TEXT/UTF8
Codec ID/Info : UTF-8 Plain Text
Duration : 2 h 11 min
Bit rate : 51 b/s
Count of elements : 1857
Stream size : 49.7 KiB (0%)
Title : SDH
Language : English
Default : No
Forced : No
Не забывайте говорить Спасибо. Не уходите с раздачи!   
Торрент: Зарегистрирован [13 авг 2019, 18:47]
Статус:
Проверен
 
.torrent скачан: 6436 раз
Хэш: 0b5c5b002da3c0fb6b2c516ce73734f3593edcb9
Размер: 9.23 ГБ (9 906 707 394 байт)
   Стать Автором раздачи
   
Цитата

Вернуться в Зарубежное кино (HD Video)

Кто сейчас на конференции

Сейчас эту тему просматривают: нет зарегистрированных пользователей и гости: 1